Sharknado 5: Aletamiento global (2017) 1080p Latino

1.479 vistas
1 estrella2 estrellas3 estrellas4 estrellas5 estrellas (2 votos, promedio: 5,00 de 5)
Cargando…

Información de Sharknado 5: Aletamiento global (2017) 1080p Latino

Datos de la película

  • Calidad: 1080p
  • Audio: Español Latino AC3 2.0 Capturado - Ingles AC3 5.1 BLURAY
  • Subtitulos: Español Latino SRT
  • Resolución: 1920x1080p
  • Formato: MKV
  • Codec: H.264
  • Encoder: Dpelis
  • Mediainfo: Clic para Mostrar Datos Ver
  • Sharknado 5 (2017) 1080p Latino.mkv
    Format                      : Matroska
    Format version              : Version 4 / Version 2
    File size                   : 2.50 GiB
    Duration                    : 1 h 28 min
    Overall bit rate            : 4 027 kb/s
    Movie name                  : DPeliculasHDMega.ORG
    Encoded date                : UTC 2017-10-01 14:52:29 / UTC 2017-10-01T13:38:03Z
    Writing application         : mkvmerge v10.0.0 ('To Drown In You') 64bit
    Writing library             : libebml v1.3.4 + libmatroska v1.4.5 / Lavf57.7.2

    Video
    ID                          : 1
    Format                      : AVC
    Format/Info                 : Advanced Video Codec
    Format profile              : [email protected]
    Format settings, CABAC      : Yes
    Format settings, RefFrames  : 4 frames
    Codec ID                    : V_MPEG4/ISO/AVC
    Duration                    : 1 h 28 min
    Bit rate                    : 3 500 kb/s
    Width                       : 1 920 pixels
    Height                      : 1 080 pixels
    Display aspect ratio        : 16:9
    Frame rate mode             : Constant
    Frame rate                  : 23.976 (24000/1001) FPS
    Color space                 : YUV
    Chroma subsampling          : 4:2:0
    Bit depth                   : 8 bits
    Scan type                   : Progressive
    Bits/(Pixel*Frame)          : 0.070
    Stream size                 : 2.09 GiB (84%)
    Writing library             : x264 core 148 r2708 86b7198
    Encoding settings           : cabac=1 / ref=3 / deblock=1:0:0 / analyse=0x3:0x113 / me=hex / subme=7 / psy=1 / psy_rd=1.00:0.00 / mixed_ref=1 / me_range=16 / chroma_me=1 / trellis=1 / 8x8dct=1 / cqm=0 / deadzone=21,11 / fast_pskip=1 / chroma_qp_offset=-2 / threads=12 / lookahead_threads=2 / sliced_threads=0 / nr=0 / decimate=1 / interlaced=0 / bluray_compat=0 / constrained_intra=0 / bframes=3 / b_pyramid=2 / b_adapt=1 / b_bias=0 / direct=1 / weightb=1 / open_gop=0 / weightp=2 / keyint=240 / keyint_min=24 / scenecut=40 / intra_refresh=0 / rc_lookahead=40 / rc=abr / mbtree=1 / bitrate=3500 / ratetol=1.0 / qcomp=0.60 / qpmin=0 / qpmax=69 / qpstep=4 / vbv_maxrate=62500 / vbv_bufsize=78125 / nal_hrd=none / filler=0 / ip_ratio=1.40 / aq=1:1.00
    Default                     : Yes
    Forced                      : No
    Color range                 : Limited
    Color primaries             : BT.709
    Transfer characteristics    : BT.709
    Matrix coefficients         : BT.709
    Statistics Tags Issue       : mkvmerge v10.0.0 ('To Drown In You') 64bit 2017-10-01 14:52:29 / mkvmerge v10.0.0 ('To Drown In You') 64bit 2017-10-01 14:52:29 / UTC 2017-10-01T13:38:03Z
    FromStats_BitRate           : 3448878
    FromStats_Duration          : 01:28:58.000000000
    FromStats_FrameCount        : 127984
    FromStats_StreamSize        : 2301264442

    Audio #1
    ID                          : 2
    Format                      : AC-3
    Format/Info                 : Audio Coding 3
    Format settings, Endianness : Big
    Codec ID                    : A_AC3
    Duration                    : 1 h 28 min
    Bit rate mode               : Constant
    Bit rate                    : 192 kb/s
    Channel(s)                  : 2 channels
    Channel positions           : Front: L R
    Sampling rate               : 48.0 kHz
    Frame rate                  : 31.250 FPS (1536 SPF)
    Bit depth                   : 16 bits
    Compression mode            : Lossy
    Delay relative to video     : 7 ms
    Stream size                 : 122 MiB (5%)
    Language                    : Spanish
    Service kind                : Complete Main
    Default                     : Yes
    Forced                      : No
    Statistics Tags Issue       : mkvmerge v10.0.0 ('To Drown In You') 64bit 2017-10-01 14:52:29 / mkvmerge v10.0.0 ('To Drown In You') 64bit 2017-10-01 14:52:29 / UTC 2017-10-01T13:38:03Z
    FromStats_BitRate           : 192000
    FromStats_Duration          : 01:28:57.568000000
    FromStats_FrameCount        : 166799
    FromStats_StreamSize        : 128101632

    Audio #2
    ID                          : 3
    Format                      : AC-3
    Format/Info                 : Audio Coding 3
    Format settings, Endianness : Big
    Codec ID                    : A_AC3
    Duration                    : 1 h 28 min
    Bit rate mode               : Constant
    Bit rate                    : 384 kb/s
    Channel(s)                  : 6 channels
    Channel positions           : Front: L C R, Side: L R, LFE
    Sampling rate               : 48.0 kHz
    Frame rate                  : 31.250 FPS (1536 SPF)
    Bit depth                   : 16 bits
    Compression mode            : Lossy
    Delay relative to video     : -5 ms
    Stream size                 : 244 MiB (10%)
    Title                       : Surround
    Language                    : English
    Service kind                : Complete Main
    Default                     : No
    Forced                      : No
    Statistics Tags Issue       : mkvmerge v10.0.0 ('To Drown In You') 64bit 2017-10-01 14:52:29 / mkvmerge v10.0.0 ('To Drown In You') 64bit 2017-10-01 14:52:29 / UTC 2017-10-01T13:38:03Z
    FromStats_BitRate           : 384000
    FromStats_Duration          : 01:28:58.016000000
    FromStats_FrameCount        : 166813
    FromStats_StreamSize        : 256224768

    Text
    ID                          : 4
    Format                      : UTF-8
    Codec ID                    : S_TEXT/UTF8
    Codec ID/Info               : UTF-8 Plain Text
    Default                     : Yes
    Forced                      : No
    Statistics Tags Issue       : mkvmerge v10.0.0 ('To Drown In You') 64bit 2017-10-01 14:52:29 / mkvmerge v10.0.0 ('To Drown In You') 64bit 2017-10-01 14:52:29 / UTC 2017-10-01T13:38:03Z
    FromStats_BitRate           : 57
    FromStats_Duration          : 01:28:18.616000000
    FromStats_FrameCount        : 1154
    FromStats_StreamSize        : 37832

    Menu
    00:00:00.000                : :00:00:00.000
    00:10:00.600                : :00:10:00.600
    00:20:01.200                : :00:20:01.200
    00:30:01.800                : :00:30:01.800
    00:40:02.400                : :00:40:02.400
    00:50:03.000                : :00:50:03.000
    01:00:03.600                : :01:00:03.600
    01:10:04.200                : :01:10:04.200
    01:20:04.800                : :01:20:04.800

  • Peso: 2.50 GB

Sinopsis

La quinta entrega de la saga de Syfy presenta nuevas tormentas infestadas de tiburones cuyo tamaño y peligro van en aumento, hasta tal punto que el alcance es a nivel global. En medio de esta realidad caótica, se encuentran Fin Shepard y su esposa April, cuyo hijo queda atrapado en un sharknado y es transportado por todo el mundo.

Ficha técnica

Video trailer de la película

Enlaces de descarga

Rip de Bluray

Descargar Sharknado 5: Aletamiento global (2017) 1080p Latino




Aportes de DPeliculasHDmega la pass es:dpeliculashdmega.org Aportes de CinemaniaHD la pass es:cinemaniahdd.com
Guardado en : Acción , Ciencia ficción , Comedia , Terror

Películas relacionadas

  • Miss Bala (2019) 1080p Latino

    2019
    Miss Bala (2019) 1080p Latino

    0.0 1h 44m 2019

    La ganadora de un concurso de belleza se ve obligada a trabajar para un jefe del crimen después de ser...

    Director: Catherine Hardwicke

    Género: Acción

    Actores: Roberto Sosa

  • Super Campones (2018) Temporada 1 NF 1080p Latino

    2018
    Super Campones (2018) Temporada 1 NF 1080p Latino

    0.0 0h 22m 2018

    La historia apasionada de un estudiante de escuela primaria cuyos pensamientos y sueños giran casi enteramente...

    Director: Toshiyuki Kato

    Género: Animación

    Actores: Yuuko Sanpei

  • The Final Wish (2018) Remux 1080p Subtitulado

    2019
    The Final Wish (2018) Remux 1080p Subtitulado

    5.0 1h 35m 2019

    Descargar The Final Wish (2018) Remux 1080p Subtitulado. Aaron (Michael Welch) es un abogado con problemas...

    Director: Timothy Woodward Jr.

    Género: Remux

    Actores: Tony Todd

Comentarios 0