×

¿Problemas para descargar con Mozilla, EDGE? Deshabilita la opción "Abrir vinculos en una pestaña nueva" tal como lo muestra ésta imagen.

El Espanta Tiburones (2004) REMUX 1080p Latino

278 vistas

Información de El Espanta Tiburones (2004) REMUX 1080p Latino

Datos de la película

  • Calidad: Full 1080p
  • Audio: Español Latino DTS 5.1 BLURAY - Ingles DTS-HD 5.1 BLURAY
  • Subtitulos: Español Latino PGS - Ingles PGS
  • Resolución: 1920x1080p
  • Formato: MKV
  • Codec: H.264
  • Encoder: CinefiloCool
  • Mediainfo: Clic para Mostrar Datos Ver
  • El Espanta Tiburones (2004) REMUX 1080p Latino-CMHDD.mkv
    Format                      : Matroska
    Format version              : Version 4
    File size                   : 21.7 GiB
    Duration                    : 1 h 30 min
    Overall bit rate mode       : Variable
    Overall bit rate            : 34.4 Mb/s
    Movie name                  : Shark Tale (2004) CinemaniaHDD.Net
    Encoded date                : UTC 2020-12-27 08:40:37
    Writing application         : mkvmerge v51.0.0 ('I Wish') 64-bit
    Writing library             : libebml v1.4.0 + libmatroska v1.6.2
    Attachments                 : CINEMANIAHD.png

    Video
    ID                          : 1
    Format                      : AVC
    Format/Info                 : Advanced Video Codec
    Format profile              : High@L4.1
    Format settings             : CABAC / 4 Ref Frames
    Format settings, CABAC      : Yes
    Format settings, Reference  : 4 frames
    Format settings, GOP        : M=3, N=12
    Codec ID                    : V_MPEG4/ISO/AVC
    Duration                    : 1 h 30 min
    Bit rate mode               : Variable
    Bit rate                    : 31.7 Mb/s
    Maximum bit rate            : 33.0 Mb/s
    Width                       : 1 920 pixels
    Height                      : 1 080 pixels
    Display aspect ratio        : 16:9
    Frame rate mode             : Constant
    Frame rate                  : 23.976 (24000/1001) FPS
    Color space                 : YUV
    Chroma subsampling          : 4:2:0
    Bit depth                   : 8 bits
    Scan type                   : Progressive
    Bits/(Pixel*Frame)          : 0.638
    Stream size                 : 20.0 GiB (92%)
    Title                       : REMUX HD1080p [CinemaniaHDD]
    Language                    : English
    Default                     : Yes
    Forced                      : No

    Audio #1
    ID                          : 2
    Format                      : DTS
    Format/Info                 : Digital Theater Systems
    Codec ID                    : A_DTS
    Duration                    : 1 h 30 min
    Bit rate mode               : Constant
    Bit rate                    : 768 kb/s
    Channel(s)                  : 6 channels
    Channel layout              : C L R Ls Rs LFE
    Sampling rate               : 48.0 kHz
    Frame rate                  : 93.750 FPS (512 SPF)
    Bit depth                   : 24 bits
    Compression mode            : Lossy
    Stream size                 : 495 MiB (2%)
    Title                       : Español Latino [CinemaniaHDD]
    Language                    : Spanish
    Default                     : Yes
    Forced                      : No

    Audio #2
    ID                          : 3
    Format                      : DTS XLL
    Format/Info                 : Digital Theater Systems
    Commercial name             : DTS-HD Master Audio
    Codec ID                    : A_DTS
    Duration                    : 1 h 30 min
    Bit rate mode               : Variable
    Bit rate                    : 1 903 kb/s
    Channel(s)                  : 6 channels
    Channel layout              : C L R Ls Rs LFE
    Sampling rate               : 48.0 kHz
    Frame rate                  : 93.750 FPS (512 SPF)
    Bit depth                   : 24 bits
    Compression mode            : Lossless
    Stream size                 : 1.20 GiB (6%)
    Title                       : Ingles [CinemaniaHDD]
    Language                    : English
    Default                     : No
    Forced                      : No

    Text #1
    ID                          : 4
    Format                      : PGS
    Muxing mode                 : zlib
    Codec ID                    : S_HDMV/PGS
    Codec ID/Info               : Picture based subtitle format used on BDs/HD-DVDs
    Duration                    : 1 h 27 min
    Bit rate                    : 584 b/s
    Count of elements           : 52
    Stream size                 : 374 KiB (0%)
    Title                       : Forzados-PGS [CinemaniaHDD]
    Language                    : Spanish
    Default                     : Yes
    Forced                      : No

    Text #2
    ID                          : 5
    Format                      : PGS
    Muxing mode                 : zlib
    Codec ID                    : S_HDMV/PGS
    Codec ID/Info               : Picture based subtitle format used on BDs/HD-DVDs
    Duration                    : 1 h 28 min
    Bit rate                    : 41.2 kb/s
    Count of elements           : 2486
    Stream size                 : 26.1 MiB (0%)
    Title                       : Español-PGS [CinemaniaHDD]
    Language                    : Spanish
    Default                     : No
    Forced                      : No

    Text #3
    ID                          : 6
    Format                      : PGS
    Muxing mode                 : zlib
    Codec ID                    : S_HDMV/PGS
    Codec ID/Info               : Picture based subtitle format used on BDs/HD-DVDs
    Duration                    : 1 h 29 min
    Bit rate                    : 58.6 kb/s
    Count of elements           : 4032
    Stream size                 : 37.4 MiB (0%)
    Title                       : Ingles-PGS [CinemaniaHDD]
    Language                    : English
    Default                     : No
    Forced                      : No

    Text #4
    ID                          : 7
    Format                      : UTF-8
    Codec ID                    : S_TEXT/UTF8
    Codec ID/Info               : UTF-8 Plain Text
    Duration                    : 1 h 19 min
    Bit rate                    : 0 b/s
    Count of elements           : 25
    Stream size                 : 483 Bytes (0%)
    Title                       : Forzados-SRT [CinemaniaHDD]
    Language                    : Spanish
    Default                     : No
    Forced                      : No

    Text #5
    ID                          : 8
    Format                      : UTF-8
    Codec ID                    : S_TEXT/UTF8
    Codec ID/Info               : UTF-8 Plain Text
    Duration                    : 1 h 28 min
    Bit rate                    : 67 b/s
    Count of elements           : 1235
    Stream size                 : 44.0 KiB (0%)
    Title                       : Español-SRT [CinemaniaHDD]
    Language                    : Spanish
    Default                     : No
    Forced                      : No

    Menu
    00:00:00.000                : :Chapter 01
    00:04:39.070                : :Chapter 02
    00:09:01.958                : :Chapter 03
    00:15:20.753                : :Chapter 04
    00:20:53.127                : :Chapter 05
    00:26:30.422                : :Chapter 06
    00:31:36.186                : :Chapter 07
    00:36:29.521                : :Chapter 08
    00:41:04.545                : :Chapter 09
    00:48:45.965                : :Chapter 10
    00:54:06.577                : :Chapter 11
    00:58:55.031                : :Chapter 12
    01:04:45.590                : :Chapter 13
    01:07:14.572                : :Chapter 14
    01:11:08.556                : :Chapter 15
    01:14:54.281                : :Chapter 16
    01:18:42.885                : :Chapter 17
    01:21:00.522                : :Chapter 18

  • Peso: 21.7 GiB

Sinopsis

Descargar El Espanta Tiburones (2004) REMUX 1080p Latino. Oscar es un pececito de verbo rápido que sueña con ser un pez gordo. Pero sus sueños le meten en agua estancada cuando una gran mentira le convierte en un improbable héroe. Al principio los demás peces se tragan el anzuelo de Oscar y le llueve la fama y la fortuna. Todo va con la marea a favor hasta que empieza a quedar claro que la historia que ha propagado Oscar de que es el gran defensor del atolón hace agua por todas partes. El pececito descubre que ser un héroe significa que su vida está de rebajas: su mentira le va a convertir en la pesca del día. Oscar debe aprender a navegar entre dos aguas para volver a encontrar la corriente a su favor.

NOTA:
Proximamente para usuarios Free, Disponible Solo para VIP!! 🙂

Ficha técnica

Video trailer de la película

Enlaces de descarga

Rip de Bluray

Descargar El Espanta Tiburones (2004) REMUX 1080p Latino




Aportes de DPeliculasHDmega la pass es:dpeliculashdmega.org Aportes de CinemaniaHD la pass es:cinemaniahdd.com
Guardado en : Acción , Animación , Comedia , Familia , Remux

Películas relacionadas

descargar El Espanta Tiburones (2004) REMUX 1080p Latino Full 1080p 1080p gratis, El Espanta Tiburones (2004) REMUX 1080p Latino Full 1080p mega 1 link, El Espanta Tiburones (2004) REMUX 1080p Latino Full 1080p pelicula completa, descargar El Espanta Tiburones (2004) REMUX 1080p Latino Full 1080p gratis en mega.

El Espanta Tiburones (2004) REMUX 1080p Latino pelicula full hd, El Espanta Tiburones (2004) REMUX 1080p Latino mega latino, El Espanta Tiburones (2004) REMUX 1080p Latino 4k latino, El Espanta Tiburones (2004) REMUX 1080p Latino pelicula completa, El Espanta Tiburones (2004) REMUX 1080p Latino descargar gratis, descargar El Espanta Tiburones (2004) REMUX 1080p Latino pelicula latino, El Espanta Tiburones (2004) REMUX 1080p Latino 1 link mega, El Espanta Tiburones (2004) REMUX 1080p Latino 1 link google drive, El Espanta Tiburones (2004) REMUX 1080p Latino hd 1080p latino.
Comentarios 0