×

¿Problemas para descargar con Mozilla, EDGE? Deshabilita la opción "Abrir vinculos en una pestaña nueva" tal como lo muestra ésta imagen.

Shanghai Noon (2000) WEB-DL 1080p Latino – CMHDD

100 vistas

Información de Shanghai Noon (2000) WEB-DL 1080p Latino – CMHDD

Datos de la película

  • Calidad: WEBDL
  • Audio: Se especifica abajo de la Sinopsis
  • Subtitulos: Español Latino SRT- FORZADOS SRT
  • Resolución: 19201080p
  • Formato: MKV
  • Codec: H.264
  • Encoder: Dracarys
  • Mediainfo: Clic para Mostrar Datos Ver
  • Format                      : Matroska
    Format version              : Version 4
    File size                   : 6.37 GiB
    Duration                    : 1 h 50 min
    Overall bit rate mode       : Variable
    Overall bit rate            : 8 265 kb/s
    Movie name                  : Shanghai Noon (2000) WEB-DL 1080p Latino - CMHDD
    Encoded date                : UTC 2023-12-14 15:19:07
    Writing application         : mkvmerge v47.0.0 ('Black Flag') 64-bit
    Writing library             : libebml v1.3.10 + libmatroska v1.5.2

    Video
    ID                          : 1
    Format                      : AVC
    Format/Info                 : Advanced Video Codec
    Format profile              : High@L4
    Format settings             : CABAC / 4 Ref Frames
    Format settings, CABAC      : Yes
    Format settings, Reference  : 4 frames
    Codec ID                    : V_MPEG4/ISO/AVC
    Duration                    : 1 h 50 min
    Bit rate mode               : Variable
    Bit rate                    : 7 750 kb/s
    Maximum bit rate            : 12.7 Mb/s
    Width                       : 1 920 pixels
    Height                      : 1 080 pixels
    Display aspect ratio        : 16:9
    Frame rate mode             : Constant
    Frame rate                  : 23.976 (24000/1001) FPS
    Color space                 : YUV
    Chroma subsampling          : 4:2:0
    Bit depth                   : 8 bits
    Scan type                   : Progressive
    Bits/(Pixel*Frame)          : 0.156
    Stream size                 : 5.97 GiB (94%)
    Default                     : Yes
    Forced                      : No
    Color range                 : Limited
    Color primaries             : BT.709
    Transfer characteristics    : BT.709
    Matrix coefficients         : BT.709

    Audio #1
    ID                          : 2
    Format                      : E-AC-3
    Format/Info                 : Enhanced AC-3
    Commercial name             : Dolby Digital Plus
    Codec ID                    : A_EAC3
    Duration                    : 1 h 50 min
    Bit rate mode               : Constant
    Bit rate                    : 256 kb/s
    Channel(s)                  : 6 channels
    Channel layout              : L R C LFE Ls Rs
    Sampling rate               : 48.0 kHz
    Frame rate                  : 31.250 FPS (1536 SPF)
    Compression mode            : Lossy
    Stream size                 : 202 MiB (3%)
    Language                    : Spanish
    Service kind                : Complete Main
    Default                     : Yes
    Forced                      : Yes

    Audio #2
    ID                          : 3
    Format                      : E-AC-3
    Format/Info                 : Enhanced AC-3
    Commercial name             : Dolby Digital Plus
    Codec ID                    : A_EAC3
    Duration                    : 1 h 50 min
    Bit rate mode               : Constant
    Bit rate                    : 256 kb/s
    Channel(s)                  : 6 channels
    Channel layout              : L R C LFE Ls Rs
    Sampling rate               : 48.0 kHz
    Frame rate                  : 31.250 FPS (1536 SPF)
    Compression mode            : Lossy
    Stream size                 : 202 MiB (3%)
    Language                    : English
    Service kind                : Complete Main
    Default                     : No
    Forced                      : No

    Text #1
    ID                          : 4
    Format                      : UTF-8
    Codec ID                    : S_TEXT/UTF8
    Codec ID/Info               : UTF-8 Plain Text
    Duration                    : 1 h 36 min
    Bit rate                    : 2 b/s
    Frame rate                  : 0.012 FPS
    Count of elements           : 68
    Stream size                 : 2.12 KiB (0%)
    Title                       : Forzados
    Language                    : Spanish
    Default                     : Yes
    Forced                      : Yes

    Text #2
    ID                          : 5
    Format                      : UTF-8
    Codec ID                    : S_TEXT/UTF8
    Codec ID/Info               : UTF-8 Plain Text
    Duration                    : 1 h 44 min
    Bit rate                    : 42 b/s
    Frame rate                  : 0.154 FPS
    Count of elements           : 960
    Stream size                 : 32.6 KiB (0%)
    Language                    : Spanish
    Default                     : No
    Forced                      : No

     

  • Peso: 6.37 GiB

Sinopsis

Corre el año 1881 y Chon Wang (Jackie Chan) es un guardián del emperador chino. Cuando la princesa Pei Pei (Lucy Liu) es secuestrada y retenida en el oeste de Nevada en los Estados Unidos de América, él decide ir en su búsqueda junto con otros guardias imperiales. Una vez allí, se encuentra con una banda de pistoleros liderados por Roy O’Bannon (Owen Wilson), quien se muestra muy interesado por la princesa y en su recompensa, por lo cual decide ayudar a Chon en su ardua tarea de búsqueda.

 

Latino: AC3 2.0  –  Ingles: AC3 5.1

Ficha técnica

Video trailer de la película

Enlaces de descarga

Rip de Bluray

Descargar Shanghai Noon (2000) WEB-DL 1080p Latino – CMHDD




Aportes de DPeliculasHDmega la pass es:dpeliculashdmega.org Aportes de CinemaniaHD la pass es:cinemaniahdd.com Aportes recientes:cinemaniahdd.net
Guardado en : Acción , Aventura , Comedia , Western

Películas relacionadas

descargar Shanghai Noon (2000) WEB-DL 1080p Latino – CMHDD WEBDL 1080p gratis, Shanghai Noon (2000) WEB-DL 1080p Latino – CMHDD WEBDL mega 1 link, Shanghai Noon (2000) WEB-DL 1080p Latino – CMHDD WEBDL pelicula completa, descargar Shanghai Noon (2000) WEB-DL 1080p Latino – CMHDD WEBDL gratis en mega.

Shanghai Noon (2000) WEB-DL 1080p Latino – CMHDD pelicula full hd, Shanghai Noon (2000) WEB-DL 1080p Latino – CMHDD mega latino, Shanghai Noon (2000) WEB-DL 1080p Latino – CMHDD 4k latino, Shanghai Noon (2000) WEB-DL 1080p Latino – CMHDD pelicula completa, Shanghai Noon (2000) WEB-DL 1080p Latino – CMHDD descargar gratis, descargar Shanghai Noon (2000) WEB-DL 1080p Latino – CMHDD pelicula latino, Shanghai Noon (2000) WEB-DL 1080p Latino – CMHDD 1 link mega, Shanghai Noon (2000) WEB-DL 1080p Latino – CMHDD 1 link google drive, Shanghai Noon (2000) WEB-DL 1080p Latino – CMHDD hd 1080p latino.
Comentarios 0