×

¿Problemas para descargar con Mozilla, EDGE? Deshabilita la opción "Abrir vinculos en una pestaña nueva" tal como lo muestra ésta imagen.

Shanghai Knights (2003) Full 1080p Latino

2.601 vistas

Información de Shanghai Knights (2003) Full 1080p Latino

shanghai knights poster

Datos de la película

  • Calidad: Full 1080p
  • Audio: Español Latino AC3 2.0 BLURAY - Ingles AC3 5.1 BLURAY
  • Subtitulos: Español Latino PGS - Ingles PGS
  • Resolución: 1920X1080p
  • Formato: MKV
  • Codec: H.264
  • Encoder: CinemaniaHD
  • Mediainfo: Clic para Mostrar Datos Ver
  • Format                                   : Matroska
    Format version                           : Version 4 / Version 2
    File size                                : 12.5 GiB
    Duration                                 : 1 h 54 min
    Overall bit rate                         : 15.6 Mb/s
    Movie name                               : CinemaniaHDD.com
    Encoded date                             : UTC 2017-12-29 03:04:24 / UTC 2017-12-28T03:48:02Z
    Writing application                      : mkvmerge v15.0.0 ('Duel with the Devil') 64-bit
    Writing library                          : libebml v1.3.5 + libmatroska v1.4.5 / Lavf57.7.2

    Video
    ID                                       : 1
    Format                                   : AVC
    Format/Info                              : Advanced Video Codec
    Format profile                           : High@L4.1
    Format settings                          : CABAC / 4 Ref Frames
    Format settings, CABAC                   : Yes
    Format settings, RefFrames               : 4 frames
    Codec ID                                 : V_MPEG4/ISO/AVC
    Duration                                 : 1 h 54 min
    Bit rate                                 : 14.3 Mb/s
    Width                                    : 1 920 pixels
    Height                                   : 1 080 pixels
    Display aspect ratio                     : 16:9
    Frame rate mode                          : Constant
    Frame rate                               : 23.976 (24000/1001) FPS
    Color space                              : YUV
    Chroma subsampling                       : 4:2:0
    Bit depth                                : 8 bits
    Scan type                                : Progressive
    Bits/(Pixel*Frame)                       : 0.288
    Stream size                              : 11.4 GiB (92%)
    Title                                    : Shanghai Knights (2003) Full 1080p Latino
    Writing library                          : x264 core 148 r2708 86b7198
    Encoding settings                        : cabac=1 / ref=4 / deblock=1:0:0 / analyse=0x3:0x133 / me=esa / subme=10 / psy=1 / psy_rd=1.00:0.00 / mixed_ref=1 / me_range=24 / chroma_me=1 / trellis=2 / 8x8dct=1 / cqm=0 / deadzone=21,11 / fast_pskip=1 / chroma_qp_offset=-2 / threads=34 / lookahead_threads=5 / sliced_threads=0 / nr=0 / decimate=1 / interlaced=0 / bluray_compat=0 / constrained_intra=0 / bframes=8 / b_pyramid=2 / b_adapt=2 / b_bias=0 / direct=3 / weightb=1 / open_gop=0 / weightp=2 / keyint=240 / keyint_min=24 / scenecut=40 / intra_refresh=0 / rc_lookahead=60 / rc=crf / mbtree=1 / crf=20.0 / qcomp=0.60 / qpmin=0 / qpmax=69 / qpstep=4 / vbv_maxrate=62500 / vbv_bufsize=78125 / crf_max=0.0 / nal_hrd=none / filler=0 / ip_ratio=1.40 / aq=1:1.00
    Language                                 : English
    Default                                  : Yes
    Forced                                   : No
    Color range                              : Limited
    Color primaries                          : BT.709
    Transfer characteristics                 : BT.709
    Matrix coefficients                      : BT.709
    Statistics Tags Issue                    : mkvmerge v15.0.0 ('Duel with the Devil') 64-bit 2017-12-29 03:04:24 / mkvmerge v15.0.0 ('Duel with the Devil') 64-bit 2017-12-29 03:04:24 / UTC 2017-12-28T03:48:02Z
    FromStats_BitRate                        : 14613017
    FromStats_Duration                       : 01:54:21.397000000
    FromStats_FrameCount                     : 164509
    FromStats_StreamSize                     : 12533214528

    Audio #1
    ID                                       : 2
    Format                                   : AC-3
    Format/Info                              : Audio Coding 3
    Mode                                     : Dolby Digital
    Format settings, Endianness              : Big
    Codec ID                                 : A_AC3
    Duration                                 : 1 h 54 min
    Bit rate mode                            : Constant
    Bit rate                                 : 320 kb/s
    Channel(s)                               : 2 channels
    Channel positions                        : Front: L R
    Sampling rate                            : 48.0 kHz
    Frame rate                               : 31.250 FPS (1536 SPF)
    Bit depth                                : 16 bits
    Compression mode                         : Lossy
    Stream size                              : 262 MiB (2%)
    Language                                 : Spanish
    Service kind                             : Complete Main
    Default                                  : Yes
    Forced                                   : No
    Statistics Tags Issue                    : mkvmerge v15.0.0 ('Duel with the Devil') 64-bit 2017-12-29 03:04:24 / mkvmerge v15.0.0 ('Duel with the Devil') 64-bit 2017-12-29 03:04:24 / UTC 2017-12-28T03:48:02Z
    FromStats_BitRate                        : 320000
    FromStats_Duration                       : 01:54:21.440000000
    FromStats_FrameCount                     : 214420
    FromStats_StreamSize                     : 274457600

    Audio #2
    ID                                       : 3
    Format                                   : AC-3
    Format/Info                              : Audio Coding 3
    Format settings, Endianness              : Big
    Codec ID                                 : A_AC3
    Duration                                 : 1 h 54 min
    Bit rate mode                            : Constant
    Bit rate                                 : 640 kb/s
    Channel(s)                               : 6 channels
    Channel positions                        : Front: L C R, Side: L R, LFE
    Sampling rate                            : 48.0 kHz
    Frame rate                               : 31.250 FPS (1536 SPF)
    Bit depth                                : 16 bits
    Compression mode                         : Lossy
    Stream size                              : 523 MiB (4%)
    Language                                 : English
    Service kind                             : Complete Main
    Default                                  : No
    Forced                                   : No
    Statistics Tags Issue                    : mkvmerge v15.0.0 ('Duel with the Devil') 64-bit 2017-12-29 03:04:24 / mkvmerge v15.0.0 ('Duel with the Devil') 64-bit 2017-12-29 03:04:24 / UTC 2017-12-28T03:48:02Z
    FromStats_BitRate                        : 640000
    FromStats_Duration                       : 01:54:21.440000000
    FromStats_FrameCount                     : 214420
    FromStats_StreamSize                     : 548915200

    Text #1
    ID                                       : 4
    Format                                   : PGS
    Muxing mode                              : zlib
    Codec ID                                 : S_HDMV/PGS
    Codec ID/Info                            : Picture based subtitle format used on BDs/HD-DVDs
    Language                                 : Spanish
    Default                                  : No
    Forced                                   : No
    Statistics Tags Issue                    : mkvmerge v15.0.0 ('Duel with the Devil') 64-bit 2017-12-29 03:04:24 / mkvmerge v15.0.0 ('Duel with the Devil') 64-bit 2017-12-29 03:04:24 / UTC 2017-12-28T03:48:02Z
    FromStats_BitRate                        : 31172
    FromStats_Duration                       : 01:46:39.727000000
    FromStats_FrameCount                     : 2905
    FromStats_StreamSize                     : 24937023

    Text #2
    ID                                       : 5
    Format                                   : PGS
    Muxing mode                              : zlib
    Codec ID                                 : S_HDMV/PGS
    Codec ID/Info                            : Picture based subtitle format used on BDs/HD-DVDs
    Language                                 : English
    Default                                  : No
    Forced                                   : No
    Statistics Tags Issue                    : mkvmerge v15.0.0 ('Duel with the Devil') 64-bit 2017-12-29 03:04:24 / mkvmerge v15.0.0 ('Duel with the Devil') 64-bit 2017-12-29 03:04:24 / UTC 2017-12-28T03:48:02Z
    FromStats_BitRate                        : 39606
    FromStats_Duration                       : 01:49:29.813000000
    FromStats_FrameCount                     : 3883
    FromStats_StreamSize                     : 32525580

    Menu
    00:00:00.000                             : :Chapter 1
    00:07:34.329                             : :Chapter 2
    00:14:32.830                             : :Chapter 3
    00:19:43.057                             : :Chapter 4
    00:24:08.697                             : :Chapter 5
    00:32:25.944                             : :Chapter 6
    00:40:53.493                             : :Chapter 7
    00:48:05.633                             : :Chapter 8
    00:55:00.881                             : :Chapter 9
    01:03:06.616                             : :Chapter 10
    01:10:31.978                             : :Chapter 11
    01:18:29.496                             : :Chapter 12
    01:25:09.396                             : :Chapter 13
    01:32:23.997                             : :Chapter 14
    01:39:26.919                             : :Chapter 15
    01:45:22.274                             : :Chapter 16

     

  • Peso: 12.5 GiB

Sinopsis

Secuela de las aventuras vividas en el salvaje oeste por la peculiar pareja formada por Chon Wang (Jackie Chan) y Roy O’Bannon (Owen Wilson). Corre el año 1887 cuando un chino rebelde asesina al padre de Chong y escapa a Inglaterra, Chon y Roy se encaminan a Londres en busca de venganza. Mientras, la hermana de Chon, que también quiere vengarse, tropieza con lo que parece ser una conspiración contra la familia real.

Ficha técnica

Video trailer de la película

Enlaces de descarga

Rip de Bluray

Descargar Shanghai Knights (2003) Full 1080p Latino




Aportes de DPeliculasHDmega la pass es:dpeliculashdmega.org Aportes de CinemaniaHD la pass es:cinemaniahdd.com Aportes recientes:cinemaniahdd.net

Películas relacionadas

descargar Shanghai Knights (2003) Full 1080p Latino Full 1080p 1080p gratis, Shanghai Knights (2003) Full 1080p Latino Full 1080p mega 1 link, Shanghai Knights (2003) Full 1080p Latino Full 1080p pelicula completa, descargar Shanghai Knights (2003) Full 1080p Latino Full 1080p gratis en mega.

Shanghai Knights (2003) Full 1080p Latino pelicula full hd, Shanghai Knights (2003) Full 1080p Latino mega latino, Shanghai Knights (2003) Full 1080p Latino 4k latino, Shanghai Knights (2003) Full 1080p Latino pelicula completa, Shanghai Knights (2003) Full 1080p Latino descargar gratis, descargar Shanghai Knights (2003) Full 1080p Latino pelicula latino, Shanghai Knights (2003) Full 1080p Latino 1 link mega, Shanghai Knights (2003) Full 1080p Latino 1 link google drive, Shanghai Knights (2003) Full 1080p Latino hd 1080p latino.
Comentarios 3