×

¿Problemas para descargar con Mozilla, EDGE? Deshabilita la opción "Abrir vinculos en una pestaña nueva" tal como lo muestra ésta imagen.

Shang-Chi and the Legend of the Ten Rings (2021) REMUX 4K HDR Latino – CMHDD

253 vistas

Información de Shang-Chi and the Legend of the Ten Rings (2021) REMUX 4K HDR Latino – CMHDD

Datos de la película

  • Calidad: 4K HDR
  • Audio: Se especifica abajo de la Sinopsis
  • Subtitulos: Español Latino SRT
  • Resolución: 3840x2160p
  • Formato: MKV
  • Codec: H.264
  • Encoder: Dracarys
  • Mediainfo: Clic para Mostrar Datos Ver
  • Format                      : Matroska
    Format version              : Version 4
    File size                   : 47.3 GiB
    Duration                    : 2 h 12 min
    Overall bit rate mode       : Variable
    Overall bit rate            : 51.2 Mb/s
    Movie name                  : Shang-Chi and the Legend of the Ten Rings (2021) REMUX 4K HDR SUP - CMHDD
    Encoded date                : UTC 2021-11-10 18:15:23
    Writing application         : mkvmerge v17.0.0 ('Be Ur Friend') 64-bit
    Writing library             : libebml v1.3.5 + libmatroska v1.4.8

    Video
    ID                          : 1
    Format                      : HEVC
    Format/Info                 : High Efficiency Video Coding
    Format profile              : Main 10@L5.1@High
    HDR format                  : SMPTE ST 2086, HDR10 compatible
    Codec ID                    : V_MPEGH/ISO/HEVC
    Duration                    : 2 h 12 min
    Bit rate                    : 46.3 Mb/s
    Width                       : 3 840 pixels
    Height                      : 2 160 pixels
    Display aspect ratio        : 16:9
    Frame rate mode             : Constant
    Frame rate                  : 23.976 (24000/1001) FPS
    Color space                 : YUV
    Chroma subsampling          : 4:2:0 (Type 2)
    Bit depth                   : 10 bits
    Bits/(Pixel*Frame)          : 0.233
    Stream size                 : 42.8 GiB (90%)
    Writing library             : ATEME Titan File 3.9.6 (4.9.6.2)        
    Default                     : Yes
    Forced                      : No
    Color range                 : Limited
    Color primaries             : BT.2020
    Transfer characteristics    : PQ
    Matrix coefficients         : BT.2020 non-constant
    Mastering display color pri : Display P3
    Mastering display luminance : min: 0.0001 cd/m2, max: 1000 cd/m2

    Audio #1
    ID                          : 2
    Format                      : MLP FBA 16-ch
    Format/Info                 : Meridian Lossless Packing FBA with 16-channel presentation
    Commercial name             : Dolby TrueHD with Dolby Atmos
    Codec ID                    : A_TRUEHD
    Duration                    : 2 h 12 min
    Bit rate mode               : Variable
    Bit rate                    : 4 214 kb/s
    Maximum bit rate            : 7 200 kb/s
    Channel(s)                  : 8 channels
    Channel layout              : L R C LFE Ls Rs Lb Rb
    Sampling rate               : 48.0 kHz
    Frame rate                  : 1 200.000 FPS (40 SPF)
    Compression mode            : Lossless
    Stream size                 : 3.90 GiB (8%)
    Language                    : English
    Default                     : No
    Forced                      : No
    Number of dynamic objects   : 13
    Bed channel count           : 1 channel
    Bed channel configuration   : LFE

    Audio #2
    ID                          : 3
    Format                      : AC-3
    Format/Info                 : Audio Coding 3
    Commercial name             : Dolby Digital
    Codec ID                    : A_AC3
    Duration                    : 2 h 12 min
    Bit rate mode               : Constant
    Bit rate                    : 640 kb/s
    Channel(s)                  : 6 channels
    Channel layout              : L R C LFE Ls Rs
    Sampling rate               : 48.0 kHz
    Frame rate                  : 31.250 FPS (1536 SPF)
    Compression mode            : Lossy
    Stream size                 : 606 MiB (1%)
    Language                    : English
    Service kind                : Complete Main
    Default                     : No
    Forced                      : No

    Text
    ID                          : 4
    Format                      : UTF-8
    Codec ID                    : S_TEXT/UTF8
    Codec ID/Info               : UTF-8 Plain Text
    Duration                    : 2 h 11 min
    Bit rate                    : 45 b/s
    Count of elements           : 1295
    Stream size                 : 43.5 KiB (0%)
    Language                    : Spanish
    Default                     : Yes
    Forced                      : No

    Menu
    00:00:00.000                : en:Chapter 1
    00:03:52.857                : en:Chapter 2
    00:09:28.985                : en:Chapter 3
    00:16:17.184                : en:Chapter 4
    00:22:47.491                : en:Chapter 5
    00:31:59.667                : en:Chapter 6
    00:42:49.483                : en:Chapter 7
    00:52:21.054                : en:Chapter 8
    00:56:51.324                : en:Chapter 9
    01:00:35.006                : en:Chapter 10
    01:08:46.122                : en:Chapter 11
    01:15:55.050                : en:Chapter 12
    01:19:51.286                : en:Chapter 13
    01:29:49.675                : en:Chapter 14
    01:36:45.800                : en:Chapter 15
    01:47:00.622                : en:Chapter 16
    01:55:25.293                : en:Chapter 17
    02:00:07.241                : en:Chapter 18
    02:01:46.132                : en:Chapter 19
    02:04:08.858                : en:Chapter 20
    02:10:39.248                : en:Chapter 21

  • Peso: 47.3 GiB

Sinopsis

Shang-Chi debe enfrentarse al pasado que pensó que había dejado atrás cuando se ve atraído por la red de la misteriosa organización de los Diez Anillos.

 

 

Español Latino EAC3 & AC3 5.1 – Inglés TrueHD 7.1

Ficha técnica

Video trailer de la película

Enlaces de descarga

Rip de Bluray

Descargar Shang-Chi and the Legend of the Ten Rings (2021) REMUX 4K HDR Latino – CMHDD


Aportes de DPeliculasHDmega la pass es:dpeliculashdmega.org Aportes de CinemaniaHD la pass es:cinemaniahdd.com
Guardado en : Acción , Aventura , Fantasía

Películas relacionadas

  • Wire Room (2022) HD 1080p Latino

    Wire Room (2022) HD 1080p Latino

    2022
    Wire Room (2022) HD 1080p Latino

    1h 37m 2022

    Descargar Wire Room (2022) HD 1080p Latino. Mientras está de servicio en la sala de cables, un agente...

    Director: Matt Eskandari

    Género: Acción

    Actores: Texas Battle

  • Wire Room (2022) PLACEBO Full HD 1080p Latino

    Wire Room (2022) PLACEBO Full HD 1080p Latino

    2022
    Wire Room (2022) PLACEBO Full HD 1080p Latino

    1h 37m 2022

    Descargar Wire Room (2022) PLACEBO Full HD 1080p Latino. Mientras está de servicio en la sala de cables,...

    Director: Matt Eskandari

    Género: Acción

    Actores: Texas Battle

  • Wire Room (2022) REMUX 1080p Latino

    Wire Room (2022) REMUX 1080p Latino

    2022
    Wire Room (2022) REMUX 1080p Latino

    1h 37m 2022

    Descargar Wire Room (2022) REMUX 1080p Latino. Mientras está de servicio en la sala de cables, un agente...

    Director: Matt Eskandari

    Género: Acción

    Actores: Texas Battle

  • El Cuartel Secreto (2022) WEB-DL 4K UHD HDR Latino

    El Cuartel Secreto (2022) WEB-DL 4K UHD HDR Latino

    2022
    El Cuartel Secreto (2022) WEB-DL 4K UHD HDR Latino

    1h 44m 2022

    Descargar El Cuartel Secreto (2022) WEB-DL 4K UHD HDR Latino. Mientras pasan el rato después de la escuela,...

    Director: Henry Joost

    Género: 4K HDR

    Actores: Zeb Slone

  • El Cuartel Secreto (2022) WEB-DL 1080p Latino

    El Cuartel Secreto (2022) WEB-DL 1080p Latino

    2022
    El Cuartel Secreto (2022) WEB-DL 1080p Latino

    1h 44m 2022

    Descargar El Cuartel Secreto (2022) WEB-DL 1080p Latino. Mientras pasan el rato después de la escuela,...

    Director: Henry Joost

    Género: Acción

    Actores: Zeb Slone

descargar Shang-Chi and the Legend of the Ten Rings (2021) REMUX 4K HDR Latino – CMHDD 4K HDR 1080p gratis, Shang-Chi and the Legend of the Ten Rings (2021) REMUX 4K HDR Latino – CMHDD 4K HDR mega 1 link, Shang-Chi and the Legend of the Ten Rings (2021) REMUX 4K HDR Latino – CMHDD 4K HDR pelicula completa, descargar Shang-Chi and the Legend of the Ten Rings (2021) REMUX 4K HDR Latino – CMHDD 4K HDR gratis en mega.

Shang-Chi and the Legend of the Ten Rings (2021) REMUX 4K HDR Latino – CMHDD pelicula full hd, Shang-Chi and the Legend of the Ten Rings (2021) REMUX 4K HDR Latino – CMHDD mega latino, Shang-Chi and the Legend of the Ten Rings (2021) REMUX 4K HDR Latino – CMHDD 4k latino, Shang-Chi and the Legend of the Ten Rings (2021) REMUX 4K HDR Latino – CMHDD pelicula completa, Shang-Chi and the Legend of the Ten Rings (2021) REMUX 4K HDR Latino – CMHDD descargar gratis, descargar Shang-Chi and the Legend of the Ten Rings (2021) REMUX 4K HDR Latino – CMHDD pelicula latino, Shang-Chi and the Legend of the Ten Rings (2021) REMUX 4K HDR Latino – CMHDD 1 link mega, Shang-Chi and the Legend of the Ten Rings (2021) REMUX 4K HDR Latino – CMHDD 1 link google drive, Shang-Chi and the Legend of the Ten Rings (2021) REMUX 4K HDR Latino – CMHDD hd 1080p latino.