×

¿Problemas para descargar con Mozilla, EDGE? Deshabilita la opción "Abrir vinculos en una pestaña nueva" tal como lo muestra ésta imagen.

Shang-Chi and the Legend of the Ten Rings (2021) REMUX 1080p SUP – CMHDD

177 vistas

Información de Shang-Chi and the Legend of the Ten Rings (2021) REMUX 1080p SUP – CMHDD

Datos de la película

  • Calidad: Full 1080p
  • Audio: Se especifica abajo de la Sinopsis
  • Subtitulos: Español Latino SRT
  • Resolución: 1920x1080p
  • Formato: MKV
  • Codec: H.264
  • Encoder: Dracarys
  • Mediainfo: Clic para Mostrar Datos Ver
  • Format                      : Matroska
    Format version              : Version 4
    File size                   : 32.5 GiB
    Duration                    : 2 h 12 min
    Overall bit rate mode       : Variable
    Overall bit rate            : 35.2 Mb/s
    Movie name                  : Shang-Chi and the Legend of the Ten Rings (2021) REMUX 1080p SUP - CMHDD
    Encoded date                : UTC 2021-11-10 04:12:59
    Writing application         : mkvmerge v17.0.0 ('Be Ur Friend') 64-bit
    Writing library             : libebml v1.3.5 + libmatroska v1.4.8

    Video
    ID                          : 1
    Format                      : AVC
    Format/Info                 : Advanced Video Codec
    Format profile              : High@L4.1
    Format settings             : CABAC / 4 Ref Frames
    Format settings, CABAC      : Yes
    Format settings, Reference  : 4 frames
    Codec ID                    : V_MPEG4/ISO/AVC
    Duration                    : 2 h 12 min
    Bit rate mode               : Variable
    Bit rate                    : 30.1 Mb/s
    Maximum bit rate            : 34.9 Mb/s
    Width                       : 1 920 pixels
    Height                      : 1 080 pixels
    Display aspect ratio        : 16:9
    Frame rate mode             : Constant
    Frame rate                  : 23.976 (24000/1001) FPS
    Color space                 : YUV
    Chroma subsampling          : 4:2:0
    Bit depth                   : 8 bits
    Scan type                   : Progressive
    Bits/(Pixel*Frame)          : 0.605
    Stream size                 : 27.8 GiB (86%)
    Default                     : Yes
    Forced                      : No

    Audio #1
    ID                          : 2
    Format                      : DTS XLL
    Format/Info                 : Digital Theater Systems
    Commercial name             : DTS-HD Master Audio
    Codec ID                    : A_DTS
    Duration                    : 2 h 12 min
    Bit rate mode               : Variable
    Bit rate                    : 4 763 kb/s
    Channel(s)                  : 8 channels
    Channel layout              : C L R LFE Lb Rb Lss Rss
    Sampling rate               : 48.0 kHz
    Frame rate                  : 93.750 FPS (512 SPF)
    Bit depth                   : 24 bits
    Compression mode            : Lossless
    Stream size                 : 4.40 GiB (14%)
    Language                    : English
    Default                     : Yes
    Forced                      : No

    Audio #2
    ID                          : 3
    Format                      : AC-3
    Format/Info                 : Audio Coding 3
    Commercial name             : Dolby Digital
    Codec ID                    : A_AC3
    Duration                    : 2 h 12 min
    Bit rate mode               : Constant
    Bit rate                    : 320 kb/s
    Channel(s)                  : 2 channels
    Channel layout              : L R
    Sampling rate               : 48.0 kHz
    Frame rate                  : 31.250 FPS (1536 SPF)
    Compression mode            : Lossy
    Stream size                 : 303 MiB (1%)
    Language                    : English
    Service kind                : Complete Main
    Default                     : No
    Forced                      : No

    Text
    ID                          : 4
    Format                      : UTF-8
    Codec ID                    : S_TEXT/UTF8
    Codec ID/Info               : UTF-8 Plain Text
    Duration                    : 2 h 11 min
    Bit rate                    : 45 b/s
    Count of elements           : 1295
    Stream size                 : 43.5 KiB (0%)
    Language                    : Spanish
    Default                     : Yes
    Forced                      : No

    Menu
    00:00:00.000                : en:Chapter 1
    00:03:52.857                : en:Chapter 2
    00:09:28.985                : en:Chapter 3
    00:16:17.184                : en:Chapter 4
    00:22:47.491                : en:Chapter 5
    00:31:59.667                : en:Chapter 6
    00:42:49.483                : en:Chapter 7
    00:52:21.054                : en:Chapter 8
    00:56:51.324                : en:Chapter 9
    01:00:35.006                : en:Chapter 10
    01:08:46.122                : en:Chapter 11
    01:15:55.050                : en:Chapter 12
    01:19:51.286                : en:Chapter 13
    01:29:49.675                : en:Chapter 14
    01:36:45.800                : en:Chapter 15
    01:47:00.622                : en:Chapter 16
    01:55:25.293                : en:Chapter 17
    02:00:07.241                : en:Chapter 18
    02:01:46.132                : en:Chapter 19
    02:04:08.858                : en:Chapter 20
    02:10:39.248                : en:Chapter 21

  • Peso:

Sinopsis

Shang-Chi debe enfrentarse al pasado que pensó que había dejado atrás cuando se ve atraído por la red de la misteriosa organización de los Diez Anillos.

 

 

Inglés: DTS HD-MA 7.1

Ficha técnica

Video trailer de la película

Enlaces de descarga

Rip de Bluray

Descargar Shang-Chi and the Legend of the Ten Rings (2021) REMUX 1080p SUP – CMHDD


Aportes de DPeliculasHDmega la pass es:dpeliculashdmega.org Aportes de CinemaniaHD la pass es:cinemaniahdd.com
Guardado en : Acción , Aventura , Fantasía

Películas relacionadas

  • The Expendables (2010) [Open Matte] WEB-DL 1080p Latino

    The Expendables (2010) [Open Matte] WEB-DL 1080p Latino

    2010
    The Expendables (2010) [Open Matte] WEB-DL 1080p Latino

    1h 43m 2010

    Un grupo de mercenarios es contratado para infiltrarse en un país sudamericano y derrocar a su despiadado...

    Director: Sylvester Stallone

    Género: Acción

    Actores: Victor Eli Hugo

  • Carter (2022) NF WEB-DL 1080p Latino

    Carter (2022) NF WEB-DL 1080p Latino

    2022
    Carter (2022) NF WEB-DL 1080p Latino

    2h 12m 2022

    Representa la impresionante persecución del agente 'Carter', introducido en una operación misteriosa...

    Director: Jung Byung-gil

    Género: Acción

    Actores: Lee Sung-jae

  • Prey (2022) 4K-HDR WEB-DL 2160p Latino

    Prey (2022) 4K-HDR WEB-DL 2160p Latino

    2022
    Prey (2022) 4K-HDR WEB-DL 2160p Latino

    1h 40m 2022

    Ambientada hace 300 años en la Nación Comanche. Naru es una joven guerrera, feroz y altamente hábil,...

    Director: Richard Cowan

    Género: 4K HDR

    Actores: Tyson Carter

Shang-Chi and the Legend of the Ten Rings (2021) REMUX 1080p SUP – CMHDD pelicula full hd, Shang-Chi and the Legend of the Ten Rings (2021) REMUX 1080p SUP – CMHDD mega latino, Shang-Chi and the Legend of the Ten Rings (2021) REMUX 1080p SUP – CMHDD 4k latino, Shang-Chi and the Legend of the Ten Rings (2021) REMUX 1080p SUP – CMHDD pelicula completa, Shang-Chi and the Legend of the Ten Rings (2021) REMUX 1080p SUP – CMHDD descargar gratis, descargar Shang-Chi and the Legend of the Ten Rings (2021) REMUX 1080p SUP – CMHDD pelicula latino, Shang-Chi and the Legend of the Ten Rings (2021) REMUX 1080p SUP – CMHDD 1 link mega, Shang-Chi and the Legend of the Ten Rings (2021) REMUX 1080p SUP – CMHDD 1 link google drive, Shang-Chi and the Legend of the Ten Rings (2021) REMUX 1080p SUP – CMHDD hd 1080p latino.