×

¿Problemas para descargar con Mozilla, EDGE? Deshabilita la opción "Abrir vinculos en una pestaña nueva" tal como lo muestra ésta imagen.

Shang-Chi y la Leyenda de los Diez Anillos (2021) D+ IMAX Web-DL 1080p Latino

412 vistas

Información de Shang-Chi y la Leyenda de los Diez Anillos (2021) D+ IMAX Web-DL 1080p Latino

Datos de la película

  • Calidad: WEBDL
  • Audio: Español Latino AC3 5.1 WEB-DL - Ingles AC3 5.1 WEB-DL
  • Subtitulos: Español Latino SRT- FORZADOS SRT
  • Resolución: 1920x1080p
  • Formato: MKV
  • Codec: H.264
  • Encoder: Melkor
  • Mediainfo: Clic para Mostrar Datos Ver
  • Shang Chi (2021) D+ IMAX WebDL 1080p Latino.mkv
    Format                      : Matroska
    Format version              : Version 4
    File size                   : 7.86 GiB
    Duration                    : 2 h 12 min
    Overall bit rate mode       : Variable
    Overall bit rate            : 8 506 kb/s
    Movie name                  : Shang Chi and the Legend of the Ten Rings (2021) CinemaniaHDD.Net
    Encoded date                : UTC 2021-11-12 09:12:01
    Writing application         : mkvmerge v56.1.0 ('My Friend') 64-bit
    Writing library             : libebml v1.4.2 + libmatroska v1.6.4
    Attachments                 : CINEMANIAHD.png

    Video
    ID                          : 1
    Format                      : AVC
    Format/Info                 : Advanced Video Codec
    Format profile              : High@L4
    Format settings             : CABAC / 4 Ref Frames
    Format settings, CABAC      : Yes
    Format settings, Reference  : 4 frames
    Codec ID                    : V_MPEG4/ISO/AVC
    Duration                    : 2 h 12 min
    Bit rate mode               : Variable
    Bit rate                    : 7 031 kb/s
    Maximum bit rate            : 12.7 Mb/s
    Width                       : 1 920 pixels
    Height                      : 1 080 pixels
    Display aspect ratio        : 16:9
    Frame rate mode             : Constant
    Frame rate                  : 23.976 (24000/1001) FPS
    Color space                 : YUV
    Chroma subsampling          : 4:2:0
    Bit depth                   : 8 bits
    Scan type                   : Progressive
    Bits/(Pixel*Frame)          : 0.141
    Stream size                 : 6.50 GiB (83%)
    Title                       : Web HD1080p [CinemaniaHDD]
    Default                     : Yes
    Forced                      : Yes
    Color range                 : Limited
    Color primaries             : BT.709
    Transfer characteristics    : BT.709
    Matrix coefficients         : BT.709

    Audio #1
    ID                          : 2
    Format                      : AC-3
    Format/Info                 : Audio Coding 3
    Commercial name             : Dolby Digital
    Codec ID                    : A_AC3
    Duration                    : 2 h 12 min
    Bit rate mode               : Constant
    Bit rate                    : 448 kb/s
    Channel(s)                  : 6 channels
    Channel layout              : L R C LFE Ls Rs
    Sampling rate               : 48.0 kHz
    Frame rate                  : 31.250 FPS (1536 SPF)
    Compression mode            : Lossy
    Stream size                 : 424 MiB (5%)
    Title                       : Español Latino AC3 [CinemaniaHDD]
    Language                    : Spanish
    Service kind                : Complete Main
    Default                     : Yes
    Forced                      : Yes

    Audio #2
    ID                          : 3
    Format                      : E-AC-3 JOC
    Format/Info                 : Enhanced AC-3 with Joint Object Coding
    Commercial name             : Dolby Digital Plus with Dolby Atmos
    Codec ID                    : A_EAC3
    Duration                    : 2 h 12 min
    Bit rate mode               : Constant
    Bit rate                    : 768 kb/s
    Channel(s)                  : 6 channels
    Channel layout              : L R C LFE Ls Rs
    Sampling rate               : 48.0 kHz
    Frame rate                  : 31.250 FPS (1536 SPF)
    Compression mode            : Lossy
    Stream size                 : 727 MiB (9%)
    Title                       : Ingles [CinemaniaHDD]
    Language                    : English
    Service kind                : Complete Main
    Default                     : No
    Forced                      : No
    Complexity index            : 16
    Number of dynamic objects   : 15
    Bed channel count           : 1 channel
    Bed channel configuration   : LFE

    Audio #3
    ID                          : 4
    Format                      : E-AC-3
    Format/Info                 : Enhanced AC-3
    Commercial name             : Dolby Digital Plus
    Codec ID                    : A_EAC3
    Duration                    : 2 h 12 min
    Bit rate mode               : Constant
    Bit rate                    : 256 kb/s
    Channel(s)                  : 6 channels
    Channel layout              : L R C LFE Ls Rs
    Sampling rate               : 48.0 kHz
    Frame rate                  : 31.250 FPS (1536 SPF)
    Compression mode            : Lossy
    Stream size                 : 242 MiB (3%)
    Title                       : Español Latino EAC3 [CinemaniaHDD]
    Language                    : Spanish
    Service kind                : Complete Main
    Default                     : No
    Forced                      : No

    Text #1
    ID                          : 5
    Format                      : UTF-8
    Codec ID                    : S_TEXT/UTF8
    Codec ID/Info               : UTF-8 Plain Text
    Duration                    : 2 h 11 min
    Bit rate                    : 5 b/s
    Count of elements           : 186
    Stream size                 : 5.35 KiB (0%)
    Title                       : Forzados-SRT [CinemaniaHDD]
    Language                    : Spanish
    Default                     : Yes
    Forced                      : Yes

    Text #2
    ID                          : 6
    Format                      : UTF-8
    Codec ID                    : S_TEXT/UTF8
    Codec ID/Info               : UTF-8 Plain Text
    Duration                    : 2 h 11 min
    Bit rate                    : 37 b/s
    Count of elements           : 1127
    Stream size                 : 35.7 KiB (0%)
    Title                       : Español-SRT [CinemaniaHDD]
    Language                    : Spanish
    Default                     : No
    Forced                      : No

    Text #3
    ID                          : 7
    Format                      : UTF-8
    Codec ID                    : S_TEXT/UTF8
    Codec ID/Info               : UTF-8 Plain Text
    Duration                    : 2 h 10 min
    Bit rate                    : 38 b/s
    Count of elements           : 1313
    Stream size                 : 36.6 KiB (0%)
    Title                       : Ingles-SRT [CinemaniaHDD]
    Language                    : English
    Default                     : No
    Forced                      : No

  • Peso: 7.86 GiB

Sinopsis

Descargar Shang-Chi y la Leyenda de los Diez Anillos (2021) D+ IMAX Web-DL 1080p Latino. Adaptación cinematográfica del héroe creado por Steve Englehart y Jim Starlin en 1973, un personaje mitad chino, mitad americano, cuyo característico estilo de combate mezclaba kung-fu, nunchacos y armas de fuego.
Tras los eventos de Avengers: Endgame,​ Shang-Chi se ve atraído por la organización clandestina de los Diez Anillos y se ve obligado a confrontar el pasado que pensó que había dejado atrás.

Ficha técnica

Video trailer de la película

Enlaces de descarga

Rip de Bluray

Descargar Shang-Chi y la Leyenda de los Diez Anillos (2021) D+ IMAX Web-DL 1080p Latino




Aportes de DPeliculasHDmega la pass es:dpeliculashdmega.org Aportes de CinemaniaHD la pass es:cinemaniahdd.com
Guardado en : Acción , Aventura , Fantasía

Películas relacionadas

descargar Shang-Chi y la Leyenda de los Diez Anillos (2021) D+ IMAX Web-DL 1080p Latino WEBDL 1080p gratis, Shang-Chi y la Leyenda de los Diez Anillos (2021) D+ IMAX Web-DL 1080p Latino WEBDL mega 1 link, Shang-Chi y la Leyenda de los Diez Anillos (2021) D+ IMAX Web-DL 1080p Latino WEBDL pelicula completa, descargar Shang-Chi y la Leyenda de los Diez Anillos (2021) D+ IMAX Web-DL 1080p Latino WEBDL gratis en mega.

Shang-Chi y la Leyenda de los Diez Anillos (2021) D+ IMAX Web-DL 1080p Latino pelicula full hd, Shang-Chi y la Leyenda de los Diez Anillos (2021) D+ IMAX Web-DL 1080p Latino mega latino, Shang-Chi y la Leyenda de los Diez Anillos (2021) D+ IMAX Web-DL 1080p Latino 4k latino, Shang-Chi y la Leyenda de los Diez Anillos (2021) D+ IMAX Web-DL 1080p Latino pelicula completa, Shang-Chi y la Leyenda de los Diez Anillos (2021) D+ IMAX Web-DL 1080p Latino descargar gratis, descargar Shang-Chi y la Leyenda de los Diez Anillos (2021) D+ IMAX Web-DL 1080p Latino pelicula latino, Shang-Chi y la Leyenda de los Diez Anillos (2021) D+ IMAX Web-DL 1080p Latino 1 link mega, Shang-Chi y la Leyenda de los Diez Anillos (2021) D+ IMAX Web-DL 1080p Latino 1 link google drive, Shang-Chi y la Leyenda de los Diez Anillos (2021) D+ IMAX Web-DL 1080p Latino hd 1080p latino.
Comentarios 0