×

¿Problemas para descargar con Mozilla, EDGE? Deshabilita la opción "Abrir vinculos en una pestaña nueva" tal como lo muestra ésta imagen.

Shang-Chi y la Leyenda de los Diez Anillos (2021) REMUX 1080p Latino

276 vistas

Información de Shang-Chi y la Leyenda de los Diez Anillos (2021) REMUX 1080p Latino

Datos de la película

  • Calidad: Full 1080p
  • Audio: Se especifica abajo de la Sinopsis
  • Subtitulos: Español PGS - Ingles PGS
  • Resolución: 1920x1080p
  • Formato: MKV
  • Codec: H.264
  • Encoder: Melkor
  • Mediainfo: Clic para Mostrar Datos Ver
  • Shang Chi (2021) REMUX 1080p Latino.mkv
    Format                      : Matroska
    Format version              : Version 4
    File size                   : 32.9 GiB
    Duration                    : 2 h 12 min
    Overall bit rate mode       : Variable
    Overall bit rate            : 35.6 Mb/s
    Movie name                  : Shang Chi and the Legend of the Ten Rings (2021) CinemaniaHDD.Net
    Encoded date                : UTC 2021-11-12 09:00:02
    Writing application         : mkvmerge v56.1.0 ('My Friend') 64-bit
    Writing library             : libebml v1.4.2 + libmatroska v1.6.4
    Attachments                 : CINEMANIAHD.png

    Video
    ID                          : 1
    ID in the original source m : 4113 (0x1011)
    Format                      : AVC
    Format/Info                 : Advanced Video Codec
    Format profile              : High@L4.1
    Format settings             : CABAC / 4 Ref Frames
    Format settings, CABAC      : Yes
    Format settings, Reference  : 4 frames
    Codec ID                    : V_MPEG4/ISO/AVC
    Duration                    : 2 h 12 min
    Bit rate mode               : Variable
    Bit rate                    : 30.1 Mb/s
    Maximum bit rate            : 34.9 Mb/s
    Width                       : 1 920 pixels
    Height                      : 1 080 pixels
    Display aspect ratio        : 16:9
    Frame rate mode             : Constant
    Frame rate                  : 23.976 (24000/1001) FPS
    Color space                 : YUV
    Chroma subsampling          : 4:2:0
    Bit depth                   : 8 bits
    Scan type                   : Progressive
    Bits/(Pixel*Frame)          : 0.605
    Stream size                 : 27.8 GiB (85%)
    Title                       : REMUX HD1080p [CinemaniaHDD]
    Language                    : English
    Default                     : Yes
    Forced                      : Yes
    Original source medium      : Blu-ray

    Audio #1
    ID                          : 2
    Format                      : AC-3
    Format/Info                 : Audio Coding 3
    Commercial name             : Dolby Digital
    Codec ID                    : A_AC3
    Duration                    : 2 h 12 min
    Bit rate mode               : Constant
    Bit rate                    : 448 kb/s
    Channel(s)                  : 6 channels
    Channel layout              : L R C LFE Ls Rs
    Sampling rate               : 48.0 kHz
    Frame rate                  : 31.250 FPS (1536 SPF)
    Compression mode            : Lossy
    Stream size                 : 424 MiB (1%)
    Title                       : Español Latino AC3 [CinemaniaHDD]
    Language                    : Spanish
    Service kind                : Complete Main
    Default                     : Yes
    Forced                      : Yes

    Audio #2
    ID                          : 3
    ID in the original source m : 4352 (0x1100)
    Format                      : DTS XLL
    Format/Info                 : Digital Theater Systems
    Commercial name             : DTS-HD Master Audio
    Codec ID                    : A_DTS
    Duration                    : 2 h 12 min
    Bit rate mode               : Variable
    Bit rate                    : 4 763 kb/s
    Channel(s)                  : 8 channels
    Channel layout              : C L R LFE Lb Rb Lss Rss
    Sampling rate               : 48.0 kHz
    Frame rate                  : 93.750 FPS (512 SPF)
    Bit depth                   : 24 bits
    Compression mode            : Lossless
    Stream size                 : 4.40 GiB (13%)
    Title                       : Ingles [CinemaniaHDD]
    Language                    : English
    Default                     : No
    Forced                      : No
    Original source medium      : Blu-ray

    Audio #3
    ID                          : 4
    Format                      : E-AC-3
    Format/Info                 : Enhanced AC-3
    Commercial name             : Dolby Digital Plus
    Codec ID                    : A_EAC3
    Duration                    : 2 h 12 min
    Bit rate mode               : Constant
    Bit rate                    : 256 kb/s
    Channel(s)                  : 6 channels
    Channel layout              : L R C LFE Ls Rs
    Sampling rate               : 48.0 kHz
    Frame rate                  : 31.250 FPS (1536 SPF)
    Compression mode            : Lossy
    Stream size                 : 242 MiB (1%)
    Title                       : Español Latino EAC3 [CinemaniaHDD]
    Language                    : Spanish
    Service kind                : Complete Main
    Default                     : No
    Forced                      : No

    Text #1
    ID                          : 5
    Format                      : PGS
    Muxing mode                 : zlib
    Codec ID                    : S_HDMV/PGS
    Codec ID/Info               : Picture based subtitle format used on BDs/HD-DVDs
    Duration                    : 2 h 11 min
    Bit rate                    : 21.3 kb/s
    Count of elements           : 2244
    Stream size                 : 20.1 MiB (0%)
    Title                       : Español-PGS [CinemaniaHDD]
    Language                    : Spanish
    Default                     : No
    Forced                      : No

    Text #2
    ID                          : 6
    ID in the original source m : 4608 (0x1200)
    Format                      : PGS
    Muxing mode                 : zlib
    Codec ID                    : S_HDMV/PGS
    Codec ID/Info               : Picture based subtitle format used on BDs/HD-DVDs
    Duration                    : 2 h 11 min
    Bit rate                    : 36.2 kb/s
    Count of elements           : 3706
    Stream size                 : 33.9 MiB (0%)
    Title                       : Ingles-PGS [CinemaniaHDD]
    Language                    : English
    Default                     : No
    Forced                      : No
    Original source medium      : Blu-ray

    Text #3
    ID                          : 7
    Format                      : UTF-8
    Codec ID                    : S_TEXT/UTF8
    Codec ID/Info               : UTF-8 Plain Text
    Duration                    : 2 h 11 min
    Bit rate                    : 5 b/s
    Count of elements           : 186
    Stream size                 : 5.35 KiB (0%)
    Title                       : Forzados-SRT [CinemaniaHDD]
    Language                    : Spanish
    Default                     : Yes
    Forced                      : Yes

    Text #4
    ID                          : 8
    Format                      : UTF-8
    Codec ID                    : S_TEXT/UTF8
    Codec ID/Info               : UTF-8 Plain Text
    Duration                    : 2 h 11 min
    Bit rate                    : 37 b/s
    Count of elements           : 1127
    Stream size                 : 35.7 KiB (0%)
    Title                       : Español-SRT [CinemaniaHDD]
    Language                    : Spanish
    Default                     : No
    Forced                      : No

    Menu
    00:00:00.000                : Chapter 01
    00:03:52.857                : Chapter 02
    00:09:28.985                : Chapter 03
    00:16:17.184                : Chapter 04
    00:22:47.491                : Chapter 05
    00:31:59.667                : Chapter 06
    00:42:49.483                : Chapter 07
    00:52:21.054                : Chapter 08
    00:56:51.324                : Chapter 09
    01:00:35.006                : Chapter 10
    01:08:46.122                : Chapter 11
    01:15:55.050                : Chapter 12
    01:19:51.286                : Chapter 13
    01:29:49.675                : Chapter 14
    01:36:45.800                : Chapter 15
    01:47:00.622                : Chapter 16
    01:55:25.293                : Chapter 17
    02:00:07.241                : Chapter 18
    02:01:46.132                : Chapter 19
    02:04:08.858                : Chapter 20
    02:10:39.248                : Chapter 21

  • Peso: 32.9 GiB

Sinopsis

Descargar Shang-Chi y la Leyenda de los Diez Anillos (2021) REMUX 1080p Latino. Adaptación cinematográfica del héroe creado por Steve Englehart y Jim Starlin en 1973, un personaje mitad chino, mitad americano, cuyo característico estilo de combate mezclaba kung-fu, nunchacos y armas de fuego.
Tras los eventos de Avengers: Endgame,​ Shang-Chi se ve atraído por la organización clandestina de los Diez Anillos y se ve obligado a confrontar el pasado que pensó que había dejado atrás.

Español Latino EAC3 & AC3 5.1 – Ingles DTS-HD 7.1

Ficha técnica

Video trailer de la película

Enlaces de descarga

Rip de Bluray

Descargar Shang-Chi y la Leyenda de los Diez Anillos (2021) REMUX 1080p Latino




Aportes de DPeliculasHDmega la pass es:dpeliculashdmega.org Aportes de CinemaniaHD la pass es:cinemaniahdd.com
Guardado en : Acción , Aventura , Fantasía , Remux

Películas relacionadas

descargar Shang-Chi y la Leyenda de los Diez Anillos (2021) REMUX 1080p Latino Full 1080p 1080p gratis, Shang-Chi y la Leyenda de los Diez Anillos (2021) REMUX 1080p Latino Full 1080p mega 1 link, Shang-Chi y la Leyenda de los Diez Anillos (2021) REMUX 1080p Latino Full 1080p pelicula completa, descargar Shang-Chi y la Leyenda de los Diez Anillos (2021) REMUX 1080p Latino Full 1080p gratis en mega.

Shang-Chi y la Leyenda de los Diez Anillos (2021) REMUX 1080p Latino pelicula full hd, Shang-Chi y la Leyenda de los Diez Anillos (2021) REMUX 1080p Latino mega latino, Shang-Chi y la Leyenda de los Diez Anillos (2021) REMUX 1080p Latino 4k latino, Shang-Chi y la Leyenda de los Diez Anillos (2021) REMUX 1080p Latino pelicula completa, Shang-Chi y la Leyenda de los Diez Anillos (2021) REMUX 1080p Latino descargar gratis, descargar Shang-Chi y la Leyenda de los Diez Anillos (2021) REMUX 1080p Latino pelicula latino, Shang-Chi y la Leyenda de los Diez Anillos (2021) REMUX 1080p Latino 1 link mega, Shang-Chi y la Leyenda de los Diez Anillos (2021) REMUX 1080p Latino 1 link google drive, Shang-Chi y la Leyenda de los Diez Anillos (2021) REMUX 1080p Latino hd 1080p latino.
Comentarios 0