×

¿Problemas para descargar con Mozilla, EDGE? Deshabilita la opción "Abrir vinculos en una pestaña nueva" tal como lo muestra ésta imagen.

Shaft (2019) REMUX 1080p Latino

556 vistas

Información de Shaft (2019) REMUX 1080p Latino

Datos de la película

  • Calidad: Full 1080p
  • Audio: Español Latino AC3 5.1 BLURAY - DTS-HD Master 7.1 BLURAY
  • Subtitulos: Español Latino PGS - Ingles PGS
  • Resolución: 1920x1080p
  • Formato: MKV
  • Codec: H.264
  • Encoder: CinefiloCool
  • Mediainfo: Clic para Mostrar Datos Ver
  • Shaft (2019) REMUX 1080p Latino-CMHDD.mkv
    Format                      : Matroska
    Format version              : Version 4
    File size                   : 26.9 GiB
    Duration                    : 1 h 51 min
    Overall bit rate mode       : Variable
    Overall bit rate            : 34.5 Mb/s
    Movie name                  : CinemaniaHDD.Net
    Encoded date                : UTC 2019-09-24 02:25:44
    Writing application         : mkvmerge v35.0.0 ('All The Love In The World') 64-bit
    Writing library             : libebml v1.3.9 + libmatroska v1.5.2
    Attachments                 : CINEMANIAHD.png

    Video
    ID                          : 1
    Format                      : AVC
    Format/Info                 : Advanced Video Codec
    Format profile              : High@L4.1
    Format settings             : CABAC / 4 Ref Frames
    Format settings, CABAC      : Yes
    Format settings, ReFrames   : 4 frames
    Codec ID                    : V_MPEG4/ISO/AVC
    Duration                    : 1 h 51 min
    Bit rate mode               : Variable
    Bit rate                    : 29.1 Mb/s
    Maximum bit rate            : 31.5 Mb/s
    Width                       : 1 920 pixels
    Height                      : 1 080 pixels
    Display aspect ratio        : 16:9
    Frame rate mode             : Constant
    Frame rate                  : 23.976 (24000/1001) FPS
    Color space                 : YUV
    Chroma subsampling          : 4:2:0
    Bit depth                   : 8 bits
    Scan type                   : Progressive
    Bits/(Pixel*Frame)          : 0.586
    Stream size                 : 22.7 GiB (85%)
    Title                       : Full HD1080p [REMUX]
    Default                     : Yes
    Forced                      : No

    Audio #1
    ID                          : 2
    Format                      : AC-3
    Format/Info                 : Audio Coding 3
    Commercial name             : Dolby Digital
    Codec ID                    : A_AC3
    Duration                    : 1 h 51 min
    Bit rate mode               : Constant
    Bit rate                    : 640 kb/s
    Channel(s)                  : 6 channels
    Channel layout              : L R C LFE Ls Rs
    Sampling rate               : 48.0 kHz
    Frame rate                  : 31.250 FPS (1536 SPF)
    Bit depth                   : 16 bits
    Compression mode            : Lossy
    Stream size                 : 511 MiB (2%)
    Title                       : AC3_5.1_Bluray_Esp
    Language                    : Spanish
    Service kind                : Complete Main
    Default                     : Yes
    Forced                      : Yes

    Audio #2
    ID                          : 3
    Format                      : DTS XLL
    Format/Info                 : Digital Theater Systems
    Commercial name             : DTS-HD Master Audio
    Codec ID                    : A_DTS
    Duration                    : 1 h 51 min
    Bit rate mode               : Variable
    Bit rate                    : 4 027 kb/s
    Channel(s)                  : 8 channels
    Channel layout              : C L R LFE Lb Rb Lss Rss
    Sampling rate               : 48.0 kHz
    Frame rate                  : 93.750 FPS (512 SPF)
    Bit depth                   : 24 bits
    Compression mode            : Lossless
    Stream size                 : 3.14 GiB (12%)
    Title                       : DTS-HD_7.1_Bluray_Eng
    Language                    : English
    Default                     : No
    Forced                      : No

    Audio #3
    ID                          : 4
    Format                      : AC-3
    Format/Info                 : Audio Coding 3
    Commercial name             : Dolby Digital
    Codec ID                    : A_AC3
    Duration                    : 1 h 51 min
    Bit rate mode               : Constant
    Bit rate                    : 640 kb/s
    Channel(s)                  : 6 channels
    Channel layout              : L R C LFE Ls Rs
    Sampling rate               : 48.0 kHz
    Frame rate                  : 31.250 FPS (1536 SPF)
    Bit depth                   : 16 bits
    Compression mode            : Lossy
    Stream size                 : 511 MiB (2%)
    Title                       : AC3_5.1_Bluray_Eng
    Language                    : English
    Service kind                : Complete Main
    Default                     : No
    Forced                      : No

    Text #1
    ID                          : 5
    Format                      : PGS
    Muxing mode                 : zlib
    Codec ID                    : S_HDMV/PGS
    Codec ID/Info               : Picture based subtitle format used on BDs/HD-DVDs
    Duration                    : 1 h 50 min
    Bit rate                    : 45.4 kb/s
    Count of elements           : 3888
    Stream size                 : 35.8 MiB (0%)
    Title                       : Sub_Esp [PGS]
    Language                    : Spanish
    Default                     : No
    Forced                      : No

    Text #2
    ID                          : 6
    Format                      : PGS
    Muxing mode                 : zlib
    Codec ID                    : S_HDMV/PGS
    Codec ID/Info               : Picture based subtitle format used on BDs/HD-DVDs
    Duration                    : 1 h 46 min
    Bit rate                    : 52.1 kb/s
    Count of elements           : 4358
    Stream size                 : 39.8 MiB (0%)
    Title                       : Sub_Eng [PGS]
    Language                    : English
    Default                     : No
    Forced                      : No

    Text #3
    ID                          : 7
    Format                      : UTF-8
    Codec ID                    : S_TEXT/UTF8
    Codec ID/Info               : UTF-8 Plain Text
    Duration                    : 1 h 50 min
    Bit rate                    : 63 b/s
    Count of elements           : 1720
    Stream size                 : 51.1 KiB (0%)
    Title                       : Sub_Esp
    Language                    : Spanish
    Default                     : No
    Forced                      : No

    Menu
    00:00:00.000                : en:Chapter 01
    00:08:02.773                : en:Chapter 02
    00:17:38.557                : en:Chapter 03
    00:27:55.924                : en:Chapter 04
    00:35:34.465                : en:Chapter 05
    00:41:22.438                : en:Chapter 06
    00:49:58.996                : en:Chapter 07
    00:59:05.208                : en:Chapter 08
    01:08:15.883                : en:Chapter 09
    01:17:30.562                : en:Chapter 10
    01:23:12.195                : en:Chapter 11
    01:33:29.270                : en:Chapter 12
    01:43:14.021                : en:Chapter 13
    01:46:54.741                : en:Chapter 14

  • Peso: 26.9 GiB

Sinopsis

Descargar Shaft (2019) REMUX 1080p Latino. Puede que JJ, también conocido como John Shaft Jr., sea un experto en ciberseguridad con una licenciatura en el MIT, pero para descubrir la verdad que se esconde tras la inesperada muerte de su mejor amigo necesita un tipo de ayuda que sólo su padre le puede proporcionar. Aunque ha estado ausente durante casi toda la infancia de JJ, John Shaft acepta ayudar a su hijo a investigar en las calles infestada de heroína de Harlem. Pese a que la placa del FBI que porta JJ contrasta con el estilo de «tipo duro» de su padre, no cabe duda de que son padre e hijo. Además, Shaft tiene sus propios motivos para colaborar con la investigación y algunos casos abiertos que desea solucionar por las buenas… o por las malas.

Ficha técnica

Video trailer de la película

Enlaces de descarga

Rip de Bluray

Descargar Shaft (2019) REMUX 1080p Latino




Aportes de DPeliculasHDmega la pass es:dpeliculashdmega.org Aportes de CinemaniaHD la pass es:cinemaniahdd.com
Guardado en : Acción , Comedia , Crimen , Remux

Películas relacionadas

  • DC Liga De Supermascotas (2022) HD 1080p Latino

    DC Liga De Supermascotas (2022) HD 1080p Latino

    2022
    DC Liga De Supermascotas (2022) HD 1080p Latino

    1h 45m 2022

    Descargar DC Liga De Supermascotas (2022) HD 1080p Latino. Krypto el Superperro y Superman son amigos...

    Director: Sam Levine

    Género: Acción

    Actores: Yvette Nicole Brown

  • Rick and Morty (2022) Temporada 6 WEB-DL 1080p Latino

    Rick and Morty (2022) Temporada 6 WEB-DL 1080p Latino

    2013
    Rick and Morty (2022) Temporada 6 WEB-DL 1080p Latino

    0h 22m 2013

    Comedia animada que narra las aventuras de un científico loco Rick Sánchez, que regresa después de...

    Director: Justin Roiland

    Género: Action & Adventure

    Actores: Spencer Grammer

  • Tremors (1990) REMUX 4K HDR Latino – CMHDD

    Tremors (1990) REMUX 4K HDR Latino – CMHDD

    1990
    Tremors (1990) REMUX 4K HDR Latino – CMHDD

    1h 35m 1990

    En Perfección, un pequeño pueblo al borde del desierto de Nevada, algo parece suceder debajo de la...

    Director: Susan Bierbaum

    Género: Acción

    Actores: Victor Wong

descargar Shaft (2019) REMUX 1080p Latino Full 1080p 1080p gratis, Shaft (2019) REMUX 1080p Latino Full 1080p mega 1 link, Shaft (2019) REMUX 1080p Latino Full 1080p pelicula completa, descargar Shaft (2019) REMUX 1080p Latino Full 1080p gratis en mega.

Shaft (2019) REMUX 1080p Latino pelicula full hd, Shaft (2019) REMUX 1080p Latino mega latino, Shaft (2019) REMUX 1080p Latino 4k latino, Shaft (2019) REMUX 1080p Latino pelicula completa, Shaft (2019) REMUX 1080p Latino descargar gratis, descargar Shaft (2019) REMUX 1080p Latino pelicula latino, Shaft (2019) REMUX 1080p Latino 1 link mega, Shaft (2019) REMUX 1080p Latino 1 link google drive, Shaft (2019) REMUX 1080p Latino hd 1080p latino.
Comentarios 0