×

¿Problemas para descargar con Mozilla, EDGE? Deshabilita la opción "Abrir vinculos en una pestaña nueva" tal como lo muestra ésta imagen.

Shaft (2019) Full HD 1080p Latino

1.494 vistas

Información de Shaft (2019) Full HD 1080p Latino

Datos de la película

  • Calidad: Full 1080p
  • Audio: Español Latino AC3 5.1 BLURAY - Ingles DTS 5.1 BLURAY
  • Subtitulos: Español Latino PGS - Ingles PGS
  • Resolución: 1920x1080p
  • Formato: MKV
  • Codec: H.264
  • Encoder: CinefiloCool
  • Mediainfo: Clic para Mostrar Datos Ver
  • Shaft (2019) Full HD 1080p Latino-CMHDD.mkv
    Format                      : Matroska
    Format version              : Version 4
    File size                   : 6.01 GiB
    Duration                    : 1 h 51 min
    Overall bit rate            : 7 715 kb/s
    Movie name                  : CinemaniaHDD.Net
    Encoded date                : UTC 2019-09-24 02:18:44
    Writing application         : mkvmerge v35.0.0 ('All The Love In The World') 64-bit
    Writing library             : libebml v1.3.9 + libmatroska v1.5.2
    Attachments                 : CINEMANIAHD.png

    Video
    ID                          : 1
    Format                      : AVC
    Format/Info                 : Advanced Video Codec
    Format profile              : High@L4.1
    Format settings             : CABAC / 4 Ref Frames
    Format settings, CABAC      : Yes
    Format settings, ReFrames   : 4 frames
    Codec ID                    : V_MPEG4/ISO/AVC
    Duration                    : 1 h 51 min
    Bit rate                    : 5 534 kb/s
    Width                       : 1 920 pixels
    Height                      : 1 080 pixels
    Display aspect ratio        : 16:9
    Frame rate mode             : Constant
    Frame rate                  : 23.976 (24000/1001) FPS
    Color space                 : YUV
    Chroma subsampling          : 4:2:0
    Bit depth                   : 8 bits
    Scan type                   : Progressive
    Bits/(Pixel*Frame)          : 0.111
    Stream size                 : 4.31 GiB (72%)
    Title                       : Full HD1080p [Bluray]
    Writing library             : x264 core 157 r2935 545de2f
    Encoding settings           : cabac=1 / ref=4 / deblock=1:0:0 / analyse=0x3:0x133 / me=tesa / subme=11 / psy=1 / psy_rd=1.00:0.00 / mixed_ref=1 / me_range=24 / chroma_me=1 / trellis=2 / 8x8dct=1 / cqm=0 / deadzone=21,11 / fast_pskip=0 / chroma_qp_offset=-2 / threads=34 / lookahead_threads=8 / sliced_threads=0 / nr=0 / decimate=1 / interlaced=0 / bluray_compat=0 / constrained_intra=0 / bframes=16 / b_pyramid=2 / b_adapt=2 / b_bias=0 / direct=3 / weightb=1 / open_gop=0 / weightp=2 / keyint=240 / keyint_min=24 / scenecut=40 / intra_refresh=0 / rc_lookahead=60 / rc=crf / mbtree=1 / crf=20.0 / qcomp=0.60 / qpmin=0 / qpmax=69 / qpstep=4 / vbv_maxrate=62500 / vbv_bufsize=78125 / crf_max=0.0 / nal_hrd=none / filler=0 / ip_ratio=1.40 / aq=1:1.00
    Default                     : Yes
    Forced                      : No
    Color range                 : Limited
    Color primaries             : BT.709
    Transfer characteristics    : BT.709
    Matrix coefficients         : BT.709

    Audio #1
    ID                          : 2
    Format                      : AC-3
    Format/Info                 : Audio Coding 3
    Commercial name             : Dolby Digital
    Codec ID                    : A_AC3
    Duration                    : 1 h 51 min
    Bit rate mode               : Constant
    Bit rate                    : 640 kb/s
    Channel(s)                  : 6 channels
    Channel layout              : L R C LFE Ls Rs
    Sampling rate               : 48.0 kHz
    Frame rate                  : 31.250 FPS (1536 SPF)
    Bit depth                   : 16 bits
    Compression mode            : Lossy
    Stream size                 : 511 MiB (8%)
    Title                       : AC3_5.1_Bluray_Esp
    Language                    : Spanish
    Service kind                : Complete Main
    Default                     : Yes
    Forced                      : Yes

    Audio #2
    ID                          : 3
    Format                      : DTS
    Format/Info                 : Digital Theater Systems
    Codec ID                    : A_DTS
    Duration                    : 1 h 51 min
    Bit rate mode               : Constant
    Bit rate                    : 1 509 kb/s
    Channel(s)                  : 6 channels
    Channel layout              : C L R Ls Rs LFE
    Sampling rate               : 48.0 kHz
    Frame rate                  : 93.750 FPS (512 SPF)
    Bit depth                   : 24 bits
    Compression mode            : Lossy
    Stream size                 : 1.18 GiB (20%)
    Title                       : DTS_5.1_Bluray_Eng
    Language                    : English
    Default                     : No
    Forced                      : No

    Text #1
    ID                          : 4
    Format                      : PGS
    Muxing mode                 : zlib
    Codec ID                    : S_HDMV/PGS
    Codec ID/Info               : Picture based subtitle format used on BDs/HD-DVDs
    Duration                    : 1 h 50 min
    Bit rate                    : 45.4 kb/s
    Count of elements           : 3888
    Stream size                 : 35.8 MiB (1%)
    Title                       : Sub_Esp [PGS]
    Language                    : Spanish
    Default                     : No
    Forced                      : No

    Text #2
    ID                          : 5
    Format                      : PGS
    Muxing mode                 : zlib
    Codec ID                    : S_HDMV/PGS
    Codec ID/Info               : Picture based subtitle format used on BDs/HD-DVDs
    Duration                    : 1 h 46 min
    Bit rate                    : 52.1 kb/s
    Count of elements           : 4358
    Stream size                 : 39.8 MiB (1%)
    Title                       : Sub_Eng [PGS]
    Language                    : English
    Default                     : No
    Forced                      : No

    Text #3
    ID                          : 6
    Format                      : UTF-8
    Codec ID                    : S_TEXT/UTF8
    Codec ID/Info               : UTF-8 Plain Text
    Duration                    : 1 h 50 min
    Bit rate                    : 63 b/s
    Count of elements           : 1720
    Stream size                 : 51.1 KiB (0%)
    Title                       : Sub_Esp
    Language                    : Spanish
    Default                     : No
    Forced                      : No

    Menu
    00:00:00.000                : :Chapter 1
    00:08:02.774                : :Chapter 2
    00:17:38.558                : :Chapter 3
    00:27:56.049                : :Chapter 4
    00:35:34.466                : :Chapter 5
    00:41:22.522                : :Chapter 6
    00:49:58.996                : :Chapter 7
    00:59:05.292                : :Chapter 8
    01:08:15.967                : :Chapter 9
    01:17:30.563                : :Chapter 10
    01:23:12.196                : :Chapter 11
    01:33:29.354                : :Chapter 12
    01:43:14.105                : :Chapter 13
    01:46:54.742                : :Chapter 14

  • Peso: 6.01 GiB

Sinopsis

Descargar Shaft (2019) Full HD 1080p Latino. Puede que JJ, también conocido como John Shaft Jr., sea un experto en ciberseguridad con una licenciatura en el MIT, pero para descubrir la verdad que se esconde tras la inesperada muerte de su mejor amigo necesita un tipo de ayuda que sólo su padre le puede proporcionar. Aunque ha estado ausente durante casi toda la infancia de JJ, John Shaft acepta ayudar a su hijo a investigar en las calles infestada de heroína de Harlem. Pese a que la placa del FBI que porta JJ contrasta con el estilo de «tipo duro» de su padre, no cabe duda de que son padre e hijo. Además, Shaft tiene sus propios motivos para colaborar con la investigación y algunos casos abiertos que desea solucionar por las buenas… o por las malas.

Ficha técnica

Video trailer de la película

Enlaces de descarga

Rip de Bluray

Descargar Shaft (2019) Full HD 1080p Latino




Aportes de DPeliculasHDmega la pass es:dpeliculashdmega.org Aportes de CinemaniaHD la pass es:cinemaniahdd.com

Películas relacionadas

descargar Shaft (2019) Full HD 1080p Latino Full 1080p 1080p gratis, Shaft (2019) Full HD 1080p Latino Full 1080p mega 1 link, Shaft (2019) Full HD 1080p Latino Full 1080p pelicula completa, descargar Shaft (2019) Full HD 1080p Latino Full 1080p gratis en mega.

Shaft (2019) Full HD 1080p Latino pelicula full hd, Shaft (2019) Full HD 1080p Latino mega latino, Shaft (2019) Full HD 1080p Latino 4k latino, Shaft (2019) Full HD 1080p Latino pelicula completa, Shaft (2019) Full HD 1080p Latino descargar gratis, descargar Shaft (2019) Full HD 1080p Latino pelicula latino, Shaft (2019) Full HD 1080p Latino 1 link mega, Shaft (2019) Full HD 1080p Latino 1 link google drive, Shaft (2019) Full HD 1080p Latino hd 1080p latino.
Comentarios 0