Shadowhunters (2018-2019) Temporada 03 Full HD 1080p Latino

12 vistas
1 estrella2 estrellas3 estrellas4 estrellas5 estrellas (Ninguna valoración todavía)
Cargando...

Información de Shadowhunters (2018-2019) Temporada 03 Full HD 1080p Latino

Datos de la película

  • Calidad: Full 1080p
  • Audio: Español Latino AC3 5.1 Netflix - Ingles DTS 5.1 BLURAY
  • Subtitulos: Español Latino SRT - Ingles SRT
  • Resolución: 1920x1080p
  • Formato: MKV
  • Codec: H.264
  • Encoder: CinefiloCool
  • Mediainfo: Clic para Mostrar Datos Ver
  • Shadowhunters S03E01 (2018) Full HD 1080p Latino-CMHDD.mkv
    Format                      : Matroska
    Format version              : Version 4
    File size                   : 4.39 GiB
    Duration                    : 43 min 49 s
    Overall bit rate            : 14.4 Mb/s
    Movie name                  : CinemaniaHDD.Net
    Encoded date                : UTC 2020-11-21 01:07:18
    Writing application         : mkvmerge v51.0.0 ('I Wish') 64-bit
    Writing library             : libebml v1.4.0 + libmatroska v1.6.2
    Attachments                 : CINEMANIAHD.png

    Video
    ID                          : 1
    Format                      : AVC
    Format/Info                 : Advanced Video Codec
    Format profile              : High@L4.1
    Format settings             : CABAC / 4 Ref Frames
    Format settings, CABAC      : Yes
    Format settings, Reference  : 4 frames
    Codec ID                    : V_MPEG4/ISO/AVC
    Duration                    : 42 min 18 s
    Bit rate                    : 12.7 Mb/s
    Width                       : 1 920 pixels
    Height                      : 1 080 pixels
    Display aspect ratio        : 16:9
    Frame rate mode             : Constant
    Frame rate                  : 23.976 (24000/1001) FPS
    Color space                 : YUV
    Chroma subsampling          : 4:2:0
    Bit depth                   : 8 bits
    Scan type                   : Progressive
    Bits/(Pixel*Frame)          : 0.255
    Stream size                 : 3.75 GiB (85%)
    Title                       : BD HD1080p [CinemaniaHDD]
    Writing library             : x264 core 161 r3015 4c2aafd
    Encoding settings           : cabac=1 / ref=4 / deblock=1:-3:-3 / analyse=0x3:0x133 / me=umh / subme=9 / psy=1 / psy_rd=1.00:0.00 / mixed_ref=1 / me_range=32 / chroma_me=1 / trellis=2 / 8x8dct=1 / cqm=0 / deadzone=21,11 / fast_pskip=0 / chroma_qp_offset=-2 / threads=34 / lookahead_threads=2 / sliced_threads=0 / nr=0 / decimate=0 / interlaced=0 / bluray_compat=0 / constrained_intra=0 / bframes=3 / b_pyramid=2 / b_adapt=2 / b_bias=0 / direct=3 / weightb=1 / open_gop=0 / weightp=2 / keyint=250 / keyint_min=23 / scenecut=40 / intra_refresh=0 / rc_lookahead=60 / rc=crf / mbtree=1 / crf=17.1 / qcomp=0.60 / qpmin=0 / qpmax=69 / qpstep=4 / ip_ratio=1.40 / aq=3:0.80
    Default                     : Yes
    Forced                      : No
    Color range                 : Limited
    Matrix coefficients         : BT.709

    Audio #1
    ID                          : 2
    Format                      : AC-3
    Format/Info                 : Audio Coding 3
    Commercial name             : Dolby Digital
    Codec ID                    : A_AC3
    Duration                    : 43 min 49 s
    Bit rate mode               : Constant
    Bit rate                    : 640 kb/s
    Channel(s)                  : 6 channels
    Channel layout              : L R C LFE Ls Rs
    Sampling rate               : 48.0 kHz
    Frame rate                  : 31.250 FPS (1536 SPF)
    Compression mode            : Lossy
    Stream size                 : 201 MiB (4%)
    Title                       : Español Latino [CinemaniaHDD]
    Language                    : Spanish
    Service kind                : Complete Main
    Default                     : Yes
    Forced                      : No

    Audio #2
    ID                          : 3
    Format                      : DTS
    Format/Info                 : Digital Theater Systems
    Codec ID                    : A_DTS
    Duration                    : 42 min 18 s
    Bit rate mode               : Constant
    Bit rate                    : 1 509 kb/s
    Channel(s)                  : 6 channels
    Channel layout              : C L R Ls Rs LFE
    Sampling rate               : 48.0 kHz
    Frame rate                  : 93.750 FPS (512 SPF)
    Bit depth                   : 24 bits
    Compression mode            : Lossy
    Stream size                 : 457 MiB (10%)
    Title                       : Ingles [CinemaniaHDD]
    Language                    : English
    Default                     : No
    Forced                      : No

    Text #1
    ID                          : 4
    Format                      : UTF-8
    Codec ID                    : S_TEXT/UTF8
    Codec ID/Info               : UTF-8 Plain Text
    Duration                    : 42 min 2 s
    Bit rate                    : 0 b/s
    Count of elements           : 5
    Stream size                 : 130 Bytes (0%)
    Title                       : Forzados-SRT [CinemaniaHDD]
    Language                    : Spanish
    Default                     : Yes
    Forced                      : No

    Text #2
    ID                          : 5
    Format                      : UTF-8
    Codec ID                    : S_TEXT/UTF8
    Codec ID/Info               : UTF-8 Plain Text
    Duration                    : 42 min 2 s
    Bit rate                    : 47 b/s
    Count of elements           : 492
    Stream size                 : 14.7 KiB (0%)
    Title                       : Español-SRT [CinemaniaHDD]
    Language                    : Spanish
    Default                     : No
    Forced                      : No

    Text #3
    ID                          : 6
    Format                      : UTF-8
    Codec ID                    : S_TEXT/UTF8
    Codec ID/Info               : UTF-8 Plain Text
    Duration                    : 41 min 56 s
    Bit rate                    : 61 b/s
    Count of elements           : 657
    Stream size                 : 18.8 KiB (0%)
    Title                       : Ingles-SRT [CinemaniaHDD]
    Language                    : English
    Default                     : No
    Forced                      : No

    Menu
    00:00:00.000                : en:Chapter 01
    00:10:30.547                : en:Chapter 02
    00:21:11.103                : en:Chapter 03
    00:35:26.249                : en:Chapter 04

  • Peso: 4.5GiB Aprox C/U. | 99.5 GiB Total

Sinopsis

Descargar Shadowhunters (2018-2019) Temporada 03 Full HD 1080p Latino. La trama de esta historia sigue la vida de Clary Fray, una joven que va una noche a Pandemonium, una conocida discoteca de Nueva York, donde ve a un chico atractivo de pelo azul y decide seguirle. Entonces se convierte en testigo de su muerte a manos de tres extraños cubiertos de tatuajes. Desde ese momento, su camino se une al de los Cazadores de Sombras. En esta aventura se podrán ver además hadas, vampiros, demonios u hombres lobo.

Tras haber superado el primer escollo, los cazadores de sombras siguen peleando, conscientes de que su labor no ha finalizado. Un nuevo demonio, Lilith, hace su aparición. Tiene un único objetivo: resucitar a Jonathan, el «chico valioso». Ante esta nueva amenaza, los cazadores de sombras deben permanecer unidos, algo que no parece fácil. Clary y Jace ocultan algo, un oscuro secreto que amenaza con destruir la estructura de los cazadores de sombras para siempre.

Ficha técnica

Video trailer de la película

Enlaces de descarga

Rip de Bluray

Descargar Shadowhunters (2018-2019) Temporada 03 Full HD 1080p Latino




Aportes de DPeliculasHDmega la pass es:dpeliculashdmega.org Aportes de CinemaniaHD la pass es:cinemaniahdd.com

Películas relacionadas

  • La Chica Del Tren (2016) 1080p Latino

    La Chica Del Tren (2016) 1080p Latino

    2016
    La Chica Del Tren (2016) 1080p Latino

    0.0 1h 52m 2016

    Descargar La Chica Del Tren (2016) 1080p Latino. Rachel (Emily Blunt) es una mujer devastada por su reciente...

    Director: Tate Taylor

    Género: Crimen

    Actores: Tim Wiencis

  • La Chica Del Tren (2016) Full HD 1080p Latino

    La Chica Del Tren (2016) Full HD 1080p Latino

    2016
    La Chica Del Tren (2016) Full HD 1080p Latino

    4.5 2h 0m 2016

    Descargar La Chica Del Tren (2016) Full HD 1080p Latino. Rachel (Emily Blunt) es una mujer devastada...

    Director: Tate Taylor

    Género: Actualizadas

    Actores: Tod Rainey

  • La Chica Del Tren (2016) REMUX 1080p Latino

    La Chica Del Tren (2016) REMUX 1080p Latino

    2016
    La Chica Del Tren (2016) REMUX 1080p Latino

    5.0 1h 52m 2016

    Descargar La Chica Del Tren (2016) REMUX 1080p Latino. Rachel (Emily Blunt) es una mujer devastada por...

    Director: Tate Taylor

    Género: Crimen

    Actores: Tod Rainey

  • La Chica Del Tren (2016) 4K UHD HDR Latino

    La Chica Del Tren (2016) 4K UHD HDR Latino

    2016
    La Chica Del Tren (2016) 4K UHD HDR Latino

    0.0 1h 52m 2016

    Descargar La Chica Del Tren (2016) 4K UHD HDR Latino. Rachel (Emily Blunt) es una mujer devastada por...

    Director: Tate Taylor

    Género: 4K HDR

    Actores: Tim Wiencis

Comentarios 0