×

¿Problemas para descargar con Mozilla, EDGE? Deshabilita la opción "Abrir vinculos en una pestaña nueva" tal como lo muestra ésta imagen.

Shadowhunters (2016) Temporada 01 Full HD 1080p Latino

379 vistas

Información de Shadowhunters (2016) Temporada 01 Full HD 1080p Latino

Datos de la película

  • Calidad: Full 1080p
  • Audio: Español Latino AC3 5.1 Netflix - Ingles DTS 5.1 BLURAY
  • Subtitulos: Español Latino SRT - Ingles SRT
  • Resolución: 1920x1080p
  • Formato: MKV
  • Codec: H.264
  • Encoder: CinefiloCool
  • Mediainfo: Clic para Mostrar Datos Ver
  • Shadowhunters S01E01 (2016) Full HD 1080p Latino-CMHDD.mkv
    Format                      : Matroska
    Format version              : Version 4
    File size                   : 3.46 GiB
    Duration                    : 41 min 17 s
    Overall bit rate            : 12.0 Mb/s
    Movie name                  : CinemaniaHDD.Net
    Encoded date                : UTC 2020-09-22 06:27:37
    Writing application         : mkvmerge v46.0.0 ('No Deeper Escape') 64-bit
    Writing library             : libebml v1.3.10 + libmatroska v1.5.2
    Attachments                 : CINEMANIAHD.png

    Video
    ID                          : 1
    Format                      : AVC
    Format/Info                 : Advanced Video Codec
    Format profile              : High@L4
    Format settings             : CABAC / 4 Ref Frames
    Format settings, CABAC      : Yes
    Format settings, Reference  : 4 frames
    Codec ID                    : V_MPEG4/ISO/AVC
    Duration                    : 39 min 52 s
    Bit rate                    : 10.3 Mb/s
    Width                       : 1 920 pixels
    Height                      : 1 080 pixels
    Display aspect ratio        : 16:9
    Frame rate mode             : Constant
    Frame rate                  : 23.976 (24000/1001) FPS
    Color space                 : YUV
    Chroma subsampling          : 4:2:0
    Bit depth                   : 8 bits
    Scan type                   : Progressive
    Bits/(Pixel*Frame)          : 0.206
    Stream size                 : 2.86 GiB (83%)
    Title                       : BD HD1080p [CinemaniaHDD.Net]
    Writing library             : x264 core 148 r2762 90a61ec
    Encoding settings           : cabac=1 / ref=4 / deblock=1:0:0 / analyse=0x3:0x133 / me=umh / subme=7 / psy=1 / psy_rd=1.00:0.00 / mixed_ref=1 / me_range=16 / chroma_me=1 / trellis=2 / 8x8dct=1 / cqm=0 / deadzone=21,11 / fast_pskip=0 / chroma_qp_offset=-2 / threads=18 / lookahead_threads=3 / sliced_threads=0 / nr=0 / decimate=1 / interlaced=0 / bluray_compat=0 / constrained_intra=0 / bframes=3 / b_pyramid=2 / b_adapt=1 / b_bias=0 / direct=3 / weightb=1 / open_gop=0 / weightp=2 / keyint=250 / keyint_min=23 / scenecut=40 / intra_refresh=0 / rc_lookahead=50 / rc=2pass / mbtree=1 / bitrate=10264 / ratetol=1.0 / qcomp=0.60 / qpmin=0 / qpmax=69 / qpstep=4 / cplxblur=20.0 / qblur=0.5 / ip_ratio=1.40 / aq=1:1.00
    Default                     : Yes
    Forced                      : No

    Audio #1
    ID                          : 2
    Format                      : AC-3
    Format/Info                 : Audio Coding 3
    Commercial name             : Dolby Digital
    Codec ID                    : A_AC3
    Duration                    : 41 min 17 s
    Bit rate mode               : Constant
    Bit rate                    : 640 kb/s
    Channel(s)                  : 6 channels
    Channel layout              : L R C LFE Ls Rs
    Sampling rate               : 48.0 kHz
    Frame rate                  : 31.250 FPS (1536 SPF)
    Compression mode            : Lossy
    Delay relative to video     : 12 ms
    Stream size                 : 189 MiB (5%)
    Title                       : Español Latino [CinemaniaHDD]
    Language                    : Spanish
    Service kind                : Complete Main
    Default                     : Yes
    Forced                      : No

    Audio #2
    ID                          : 3
    Format                      : DTS
    Format/Info                 : Digital Theater Systems
    Codec ID                    : A_DTS
    Duration                    : 39 min 52 s
    Bit rate mode               : Constant
    Bit rate                    : 1 509 kb/s
    Channel(s)                  : 6 channels
    Channel layout              : C L R Ls Rs LFE
    Sampling rate               : 48.0 kHz
    Frame rate                  : 93.750 FPS (512 SPF)
    Bit depth                   : 24 bits
    Compression mode            : Lossy
    Stream size                 : 430 MiB (12%)
    Title                       : Ingles [CinemaniaHDD]
    Language                    : English
    Default                     : No
    Forced                      : No

    Text #1
    ID                          : 4
    Format                      : UTF-8
    Codec ID                    : S_TEXT/UTF8
    Codec ID/Info               : UTF-8 Plain Text
    Duration                    : 26 min 30 s
    Bit rate                    : 1 b/s
    Count of elements           : 13
    Stream size                 : 294 Bytes (0%)
    Title                       : Forzados-SRT [CinemaniaHDD]
    Language                    : Spanish
    Default                     : Yes
    Forced                      : No

    Text #2
    ID                          : 5
    Format                      : UTF-8
    Codec ID                    : S_TEXT/UTF8
    Codec ID/Info               : UTF-8 Plain Text
    Duration                    : 38 min 57 s
    Bit rate                    : 63 b/s
    Count of elements           : 565
    Stream size                 : 18.1 KiB (0%)
    Title                       : Español-SRT [CinemaniaHDD]
    Language                    : Spanish
    Default                     : No
    Forced                      : No

    Text #3
    ID                          : 6
    Format                      : UTF-8
    Codec ID                    : S_TEXT/UTF8
    Codec ID/Info               : UTF-8 Plain Text
    Duration                    : 38 min 59 s
    Bit rate                    : 77 b/s
    Count of elements           : 705
    Stream size                 : 22.2 KiB (0%)
    Title                       : Ingles-SRT [CinemaniaHDD]
    Language                    : English
    Default                     : No
    Forced                      : No

  • Peso: 3.5GiB Aprox C/U. | 45.1 GiB Total

Sinopsis

Descargar Shadowhunters (2016) Temporada 01 Full HD 1080p Latino. La trama de esta historia sigue la vida de Clary Fray, una joven que va una noche a Pandemonium, una conocida discoteca de Nueva York, donde ve a un chico atractivo de pelo azul y decide seguirle. Entonces se convierte en testigo de su muerte a manos de tres extraños cubiertos de tatuajes. Desde ese momento, su camino se une al de los Cazadores de Sombras. En esta aventura se podrán ver además hadas, vampiros, demonios u hombres lobo.

Esos sucesos revelan la verdad: Claire es una cazadora de sombras, una humana nacida a partir de sangre de ángeles y nacida para cumplir el propósito de proteger el planeta de los demonios. Ahora, tras la desaparición de su madre, Claire debe aceptar lo que es y, junto al resto de cazadores dispuestos a ayudarla, emprender la misión de rescatar a su madre de las oscuras manos de sus raptores.

Ficha técnica

Video trailer de la película

Enlaces de descarga

Rip de Bluray

Descargar Shadowhunters (2016) Temporada 01 Full HD 1080p Latino




Aportes de DPeliculasHDmega la pass es:dpeliculashdmega.org Aportes de CinemaniaHD la pass es:cinemaniahdd.com

Películas relacionadas

descargar Shadowhunters (2016) Temporada 01 Full HD 1080p Latino Full 1080p 1080p gratis, Shadowhunters (2016) Temporada 01 Full HD 1080p Latino Full 1080p mega 1 link, Shadowhunters (2016) Temporada 01 Full HD 1080p Latino Full 1080p serie completa, descargar Shadowhunters (2016) Temporada 01 Full HD 1080p Latino Full 1080p gratis en mega.

Shadowhunters (2016) Temporada 01 Full HD 1080p Latino pelicula full hd, Shadowhunters (2016) Temporada 01 Full HD 1080p Latino mega latino, Shadowhunters (2016) Temporada 01 Full HD 1080p Latino 4k latino, Shadowhunters (2016) Temporada 01 Full HD 1080p Latino pelicula completa, Shadowhunters (2016) Temporada 01 Full HD 1080p Latino descargar gratis, descargar Shadowhunters (2016) Temporada 01 Full HD 1080p Latino pelicula latino, Shadowhunters (2016) Temporada 01 Full HD 1080p Latino 1 link mega, Shadowhunters (2016) Temporada 01 Full HD 1080p Latino 1 link google drive, Shadowhunters (2016) Temporada 01 Full HD 1080p Latino hd 1080p latino.
Comentarios 0