×

¿Problemas para descargar con Mozilla, EDGE? Deshabilita la opción "Abrir vinculos en una pestaña nueva" tal como lo muestra ésta imagen.

Sgt. Bilko (1996) REMUX 1080p Latino – CMHDD

204 vistas

Información de Sgt. Bilko (1996) REMUX 1080p Latino – CMHDD

Datos de la película

  • Calidad: Full 1080p
  • Audio: Se especifica abajo de la Sinopsis
  • Subtitulos: Español Latino SRT
  • Resolución: 1920x1080p
  • Formato: MKV
  • Codec: H.264
  • Encoder: Dracarys
  • Mediainfo: Clic para Mostrar Datos Ver
  • Format                      : Matroska
    Format version              : Version 4
    File size                   : 21.5 GiB
    Duration                    : 1 h 34 min
    Overall bit rate mode       : Variable
    Overall bit rate            : 32.6 Mb/s
    Movie name                  : Sgt. Bilko (1996) REMUX 1080p Latino - CMHDD
    Encoded date                : UTC 2021-07-04 03:49:44
    Writing application         : mkvmerge v56.1.0 ('My Friend') 64-bit
    Writing library             : libebml v1.4.2 + libmatroska v1.6.4
    Cover                       : Yes
    Attachments                 : cover.jpg

    Video
    ID                          : 1
    Format                      : AVC
    Format/Info                 : Advanced Video Codec
    Format profile              : High@L4.1
    Format settings             : CABAC / 4 Ref Frames
    Format settings, CABAC      : Yes
    Format settings, Reference  : 4 frames
    Codec ID                    : V_MPEG4/ISO/AVC
    Duration                    : 1 h 34 min
    Bit rate mode               : Variable
    Bit rate                    : 30.0 Mb/s
    Maximum bit rate            : 36.0 Mb/s
    Width                       : 1 920 pixels
    Height                      : 1 080 pixels
    Display aspect ratio        : 16:9
    Frame rate mode             : Constant
    Frame rate                  : 23.976 (24000/1001) FPS
    Standard                    : NTSC
    Color space                 : YUV
    Chroma subsampling          : 4:2:0
    Bit depth                   : 8 bits
    Scan type                   : Progressive
    Bits/(Pixel*Frame)          : 0.603
    Stream size                 : 19.7 GiB (92%)
    Default                     : Yes
    Forced                      : No
    Color range                 : Limited
    Color primaries             : BT.709
    Transfer characteristics    : BT.709
    Matrix coefficients         : BT.709

    Audio #1
    ID                          : 2
    Format                      : AC-3
    Format/Info                 : Audio Coding 3
    Commercial name             : Dolby Digital
    Codec ID                    : A_AC3
    Duration                    : 1 h 34 min
    Bit rate mode               : Constant
    Bit rate                    : 384 kb/s
    Channel(s)                  : 6 channels
    Channel layout              : L R C LFE Ls Rs
    Sampling rate               : 48.0 kHz
    Frame rate                  : 31.250 FPS (1536 SPF)
    Compression mode            : Lossy
    Stream size                 : 259 MiB (1%)
    Language                    : Spanish
    Service kind                : Complete Main
    Default                     : Yes
    Forced                      : No

    Audio #2
    ID                          : 3
    Format                      : DTS XLL
    Format/Info                 : Digital Theater Systems
    Commercial name             : DTS-HD Master Audio
    Codec ID                    : A_DTS
    Duration                    : 1 h 34 min
    Bit rate mode               : Variable
    Bit rate                    : 2 277 kb/s
    Channel(s)                  : 5 channels
    Channel layout              : C L R Ls Rs
    Sampling rate               : 48.0 kHz
    Frame rate                  : 93.750 FPS (512 SPF)
    Bit depth                   : 16 bits
    Compression mode            : Lossless
    Stream size                 : 1.50 GiB (7%)
    Language                    : English
    Default                     : No
    Forced                      : No

    Text
    ID                          : 4
    Format                      : UTF-8
    Codec ID                    : S_TEXT/UTF8
    Codec ID/Info               : UTF-8 Plain Text
    Duration                    : 1 h 29 min
    Bit rate                    : 70 b/s
    Count of elements           : 1058
    Stream size                 : 46.1 KiB (0%)
    Language                    : Spanish
    Default                     : No
    Forced                      : No

  • Peso: 21.5 GiB

Sinopsis

Ernest G. Bilko es un sargento del ejército de los Estados Unidos que se vale de su posición para hacer toda clase de pequeños trapicheos, incluyendo las apuestas ilegales, en una base militar de Kansas. Su oficial superior, el comandante Hall, permanece ignorante de todo esto. Los problemas se sucederán con la llegada de un viejo rival del sargento: el Mayor Thorn.

 

 

Latino: AC3 5.1  –  Ingles: DTS-HD Master Audio 5.0

Ficha técnica

  • Titulo original: Sgt. Bilko
  • Fecha de lanzamiento: 29-03-1996 (United States of America)
  • Director: Jonathan Lynn
  • Género: Comedia, Familia

Video trailer de la película

Enlaces de descarga

Rip de Bluray

Descargar Sgt. Bilko (1996) REMUX 1080p Latino – CMHDD


Aportes de DPeliculasHDmega la pass es:dpeliculashdmega.org Aportes de CinemaniaHD la pass es:cinemaniahdd.com
Guardado en : Comedia , Familia

Películas relacionadas

  • Un mundo extraño (2022) HD 1080p Latino

    Un mundo extraño (2022) HD 1080p Latino

    2022
    Un mundo extraño (2022) HD 1080p Latino

    1h 42m 2022

    Descargar Un mundo extraño (2022) HD 1080p Latino. Los Clades son una familia conocida en todo el mundo,...

    Director: Thai Bettistea

    Género: Animación

    Actores: Reed Buck

  • Un mundo extraño (2022) REMUX 1080p Latino

    Un mundo extraño (2022) REMUX 1080p Latino

    2022
    Un mundo extraño (2022) REMUX 1080p Latino

    1h 42m 2022

    Descargar Un mundo extraño (2022) REMUX 1080p. Un viaje a una tierra inexplorada y traicionera en la...

    Director: Thai Bettistea

    Género: Animación

    Actores: Reed Buck

  • Espiritu Libre (2023) NF WEB-DL 1080p Latino

    Espiritu Libre (2023) NF WEB-DL 1080p Latino

    2023
    Espiritu Libre (2023) NF WEB-DL 1080p Latino

    1h 49m 2023

    Descargar Espiritu Libre (2023) NF WEB-DL 1080p Latino. La película se basa en la increíble historia...

    Director: Sarah Spillane

    Género: Aventura

    Actores: Vivien Turner

  • Corazón de tinta (2008) Full HD 1080p Latino

    Corazón de tinta (2008) Full HD 1080p Latino

    2008
    Corazón de tinta (2008) Full HD 1080p Latino

    1h 46m 2008

    Descargar Corazón de tinta (2008) Full HD 1080p Latino. Mortimer “Mo” Folchart y su hija de 12 años,...

    Director: Sharon Mansfield

    Género: Aventura

    Actores: Terry Cavanagh

descargar Sgt. Bilko (1996) REMUX 1080p Latino – CMHDD Full 1080p 1080p gratis, Sgt. Bilko (1996) REMUX 1080p Latino – CMHDD Full 1080p mega 1 link, Sgt. Bilko (1996) REMUX 1080p Latino – CMHDD Full 1080p pelicula completa, descargar Sgt. Bilko (1996) REMUX 1080p Latino – CMHDD Full 1080p gratis en mega.

Sgt. Bilko (1996) REMUX 1080p Latino – CMHDD pelicula full hd, Sgt. Bilko (1996) REMUX 1080p Latino – CMHDD mega latino, Sgt. Bilko (1996) REMUX 1080p Latino – CMHDD 4k latino, Sgt. Bilko (1996) REMUX 1080p Latino – CMHDD pelicula completa, Sgt. Bilko (1996) REMUX 1080p Latino – CMHDD descargar gratis, descargar Sgt. Bilko (1996) REMUX 1080p Latino – CMHDD pelicula latino, Sgt. Bilko (1996) REMUX 1080p Latino – CMHDD 1 link mega, Sgt. Bilko (1996) REMUX 1080p Latino – CMHDD 1 link google drive, Sgt. Bilko (1996) REMUX 1080p Latino – CMHDD hd 1080p latino.
Comentarios 0