Sexy por accidente (2018) 1080p Latino

1.428 vistas
1 estrella2 estrellas3 estrellas4 estrellas5 estrellas (1 votos, promedio: 5,00 de 5)
Cargando…

Información de Sexy por accidente (2018) 1080p Latino

Datos de la película

  • Calidad: 1080p
  • Audio: Español Latino AC3 5.1 BLURAY - Ingles AC3 5.1 BLURAY
  • Subtitulos: Español Latino SRT
  • Resolución: 1920x800p
  • Formato: MKV
  • Codec: H.264
  • Encoder: chesse92
  • Mediainfo: Clic para Mostrar Datos Ver
  • Format                                   : Matroska
    Format version                           : Version 4 / Version 2
    File size                                : 3.54 GiB
    Duration                                 : 1 h 50 min
    Overall bit rate                         : 4 564 kb/s
    Movie name                               : CinemaniaHDD.net
    Encoded date                             : UTC 2018-07-05 01:27:07 / UTC 2018-07-04T23:41:07Z
    Writing application                      : mkvmerge v15.0.0 ('Duel with the Devil') 64-bit
    Writing library                          : libebml v1.3.5 + libmatroska v1.4.5 / Lavf57.7.2

    Video
    ID                                       : 1
    Format                                   : AVC
    Format/Info                              : Advanced Video Codec
    Format profile                           : High@L4.1
    Format settings                          : CABAC / 5 Ref Frames
    Format settings, CABAC                   : Yes
    Format settings, RefFrames               : 5 frames
    Codec ID                                 : V_MPEG4/ISO/AVC
    Duration                                 : 1 h 50 min
    Bit rate                                 : 3 500 kb/s
    Width                                    : 1 920 pixels
    Height                                   : 800 pixels
    Display aspect ratio                     : 2.40:1
    Frame rate mode                          : Constant
    Frame rate                               : 23.976 (24000/1001) FPS
    Color space                              : YUV
    Chroma subsampling                       : 4:2:0
    Bit depth                                : 8 bits
    Scan type                                : Progressive
    Bits/(Pixel*Frame)                       : 0.095
    Stream size                              : 2.62 GiB (74%)
    Title                                    : Sexy por accidente (2018) 1080p Latino
    Writing library                          : x264 core 155 r2893 b00bcaf
    Encoding settings                        : cabac=1 / ref=5 / deblock=1:0:0 / analyse=0x3:0x113 / me=hex / subme=8 / psy=1 / psy_rd=1.00:0.00 / mixed_ref=1 / me_range=16 / chroma_me=1 / trellis=2 / 8x8dct=1 / cqm=0 / deadzone=21,11 / fast_pskip=1 / chroma_qp_offset=-2 / threads=25 / lookahead_threads=4 / sliced_threads=0 / nr=0 / decimate=1 / interlaced=0 / bluray_compat=0 / constrained_intra=0 / bframes=3 / b_pyramid=2 / b_adapt=1 / b_bias=0 / direct=3 / weightb=1 / open_gop=0 / weightp=2 / keyint=240 / keyint_min=24 / scenecut=40 / intra_refresh=0 / rc_lookahead=50 / rc=abr / mbtree=1 / bitrate=3500 / ratetol=1.0 / qcomp=0.60 / qpmin=0 / qpmax=69 / qpstep=4 / vbv_maxrate=62500 / vbv_bufsize=78125 / nal_hrd=none / filler=0 / ip_ratio=1.40 / aq=1:1.00
    Language                                 : English
    Default                                  : Yes
    Forced                                   : No
    Color range                              : Limited
    Color primaries                          : BT.709
    Transfer characteristics                 : BT.709
    Matrix coefficients                      : BT.709
    Statistics Tags Issue                    : mkvmerge v15.0.0 ('Duel with the Devil') 64-bit 2018-07-05 01:27:07 / mkvmerge v15.0.0 ('Duel with the Devil') 64-bit 2018-07-05 01:27:07 / UTC 2018-07-04T23:41:07Z
    FromStats_BitRate                        : 3474103
    FromStats_Duration                       : 01:50:58.527000000
    FromStats_FrameCount                     : 159645
    FromStats_StreamSize                     : 2891551393

    Audio #1
    ID                                       : 2
    Format                                   : AC-3
    Format/Info                              : Audio Coding 3
    Format settings, Endianness              : Big
    Codec ID                                 : A_AC3
    Duration                                 : 1 h 50 min
    Bit rate mode                            : Constant
    Bit rate                                 : 640 kb/s
    Channel(s)                               : 6 channels
    Channel positions                        : Front: L C R, Side: L R, LFE
    Sampling rate                            : 48.0 kHz
    Frame rate                               : 31.250 FPS (1536 SPF)
    Bit depth                                : 16 bits
    Compression mode                         : Lossy
    Delay relative to video                  : -5 ms
    Stream size                              : 508 MiB (14%)
    Language                                 : Spanish
    Service kind                             : Complete Main
    Default                                  : Yes
    Forced                                   : No
    Statistics Tags Issue                    : mkvmerge v15.0.0 ('Duel with the Devil') 64-bit 2018-07-05 01:27:07 / mkvmerge v15.0.0 ('Duel with the Devil') 64-bit 2018-07-05 01:27:07 / UTC 2018-07-04T23:41:07Z
    FromStats_BitRate                        : 640000
    FromStats_Duration                       : 01:50:58.560000000
    FromStats_FrameCount                     : 208080
    FromStats_StreamSize                     : 532684800

    Audio #2
    ID                                       : 3
    Format                                   : AC-3
    Format/Info                              : Audio Coding 3
    Format settings, Endianness              : Big
    Codec ID                                 : A_AC3
    Duration                                 : 1 h 50 min
    Bit rate mode                            : Constant
    Bit rate                                 : 448 kb/s
    Channel(s)                               : 6 channels
    Channel positions                        : Front: L C R, Side: L R, LFE
    Sampling rate                            : 48.0 kHz
    Frame rate                               : 31.250 FPS (1536 SPF)
    Bit depth                                : 16 bits
    Compression mode                         : Lossy
    Stream size                              : 356 MiB (10%)
    Language                                 : English
    Service kind                             : Complete Main
    Default                                  : No
    Forced                                   : No
    Statistics Tags Issue                    : mkvmerge v15.0.0 ('Duel with the Devil') 64-bit 2018-07-05 01:27:07 / mkvmerge v15.0.0 ('Duel with the Devil') 64-bit 2018-07-05 01:27:07 / UTC 2018-07-04T23:41:07Z
    FromStats_BitRate                        : 448000
    FromStats_Duration                       : 01:50:58.528000000
    FromStats_FrameCount                     : 208079
    FromStats_StreamSize                     : 372877568

    Text #1
    ID                                       : 4
    Format                                   : UTF-8
    Codec ID                                 : S_TEXT/UTF8
    Codec ID/Info                            : UTF-8 Plain Text
    Title                                    : Forzados
    Language                                 : Spanish
    Default                                  : Yes
    Forced                                   : Yes
    Statistics Tags Issue                    : mkvmerge v15.0.0 ('Duel with the Devil') 64-bit 2018-07-05 01:27:07 / mkvmerge v15.0.0 ('Duel with the Devil') 64-bit 2018-07-05 01:27:07 / UTC 2018-07-04T23:41:07Z
    FromStats_BitRate                        : 0
    FromStats_Duration                       : 01:44:34.074000000
    FromStats_FrameCount                     : 18
    FromStats_StreamSize                     : 474

    Text #2
    ID                                       : 5
    Format                                   : UTF-8
    Codec ID                                 : S_TEXT/UTF8
    Codec ID/Info                            : UTF-8 Plain Text
    Language                                 : Spanish
    Default                                  : No
    Forced                                   : No
    Statistics Tags Issue                    : mkvmerge v15.0.0 ('Duel with the Devil') 64-bit 2018-07-05 01:27:07 / mkvmerge v15.0.0 ('Duel with the Devil') 64-bit 2018-07-05 01:27:07 / UTC 2018-07-04T23:41:07Z
    FromStats_BitRate                        : 69
    FromStats_Duration                       : 01:44:39.379000000
    FromStats_FrameCount                     : 1792
    FromStats_StreamSize                     : 54586

    Menu
    00:00:00.000                             : :00:00:00.000
    00:07:30.659                             : :00:07:30.659
    00:13:31.185                             : :00:13:31.185
    00:20:21.846                             : :00:20:21.846
    00:25:49.131                             : :00:25:49.131
    00:30:03.385                             : :00:30:03.385
    00:34:31.194                             : :00:34:31.194
    00:38:47.492                             : :00:38:47.492
    00:44:13.734                             : :00:44:13.734
    00:47:59.251                             : :00:47:59.251
    00:53:46.306                             : :00:53:46.306
    00:58:07.526                             : :00:58:07.526
    01:04:03.590                             : :01:04:03.590
    01:11:54.310                             : :01:11:54.310
    01:19:13.415                             : :01:19:13.415
    01:27:14.062                             : :01:27:14.062
    01:31:33.154                             : :01:31:33.154
    01:37:00.565                             : :01:37:00.565
    01:44:10.786                             : :01:44:10.786
    01:46:17.746                             : :01:46:17.580

  • Peso: 3.54 GiB

Sinopsis

Una chica corriente, que se enfrenta cada día a sus inseguridades, despierta de una caída creyendo que de repente es la mujer más bella y capaz del planeta. Con esta nueva confianza en sí misma se siente capaz de vivir su vida sin complejos ni limitaciones pero, ¿qué pasará cuando se dé cuenta de que su apariencia en realidad no ha cambiado?

Ficha técnica

Video trailer de la película

Enlaces de descarga

Rip de Bluray

Descargar Sexy por accidente (2018) 1080p Latino




Aportes de DPeliculasHDmega la pass es:dpeliculashdmega.org Aportes de CinemaniaHD la pass es:cinemaniahdd.com
Guardado en : Comedia , HD 1080p

Películas relacionadas

  • La balada de Buster Scruggs (2018) NF 1080p Latino

    2018
    La balada de Buster Scruggs (2018) NF 1080p Latino

    0.0 2h 12m 2018

    Los siempre singulares Joel y Ethan Cohen escriben y dirigen esta antología de seis historias del Salvaje...

    Director: Joel Coen

    Género: Comedia

    Actores: Zoe Kazan

  • Cambio de princesa (2018) NF 1080p Latino

    2018
    Cambio de princesa (2018) NF 1080p Latino

    0.0 1h 41m 2018

    Una repostera de Chicago y una futura princesa descubren que parecen gemelas, así que idean un plan...

    Director: Mike Rohl

    Género: Comedia

    Actores: Vanessa Hudgens

  • La pequeña brujita (2018) AMZN 1080p Latino

    2018
    La pequeña brujita (2018) AMZN 1080p Latino

    5.0 1h 43m 2018

    Descargar La pequeña brujita (2018) AMZN 1080p Latino, Mega, Google Drive. La pequeña bruja sólo tiene...

    Director: Mike Schaerer

    Género: Comedia

    Actores: Verena Bosshard

  • Titanes (2018) Temporada 01 Web-DL 1080p Subtitulado

    2018
    Titanes (2018) Temporada 01 Web-DL 1080p Subtitulado

    3.3 0h 43m 2018

    Descargar Titanes (2018) Temporada 01 Web-DL 1080p Subtitulado; Mega, Google Drive. Un equipo de jóvenes...

    Director: Greg Berlanti

    Género: Action & Adventure

    Actores: Teagan Croft

Comentarios 0