×

¿Problemas para descargar con Mozilla, EDGE? Deshabilita la opción "Abrir vinculos en una pestaña nueva" tal como lo muestra ésta imagen.

Sex Tape (2014) REMUX 1080p Latino – CMHDD

164 vistas

Información de Sex Tape (2014) REMUX 1080p Latino – CMHDD

Datos de la película

  • Calidad: Full 1080p
  • Audio: Español Latino AC3 2.0
  • Subtitulos: Español Latino PGS
  • Resolución: 19201080p
  • Formato: MKV
  • Codec: H.264
  • Encoder: Dracarys
  • Mediainfo: Clic para Mostrar Datos Ver
  • Format                      : Matroska
    Format version              : Version 4
    File size                   : 18.7 GiB
    Duration                    : 1 h 34 min
    Overall bit rate mode       : Variable
    Overall bit rate            : 28.3 Mb/s
    Movie name                  : Sex Tape (2014) REMUX 1080p Latino - CMHDD
    Encoded date                : UTC 2023-10-03 03:49:38
    Writing application         : mkvmerge v47.0.0 ('Black Flag') 64-bit
    Writing library             : libebml v1.3.10 + libmatroska v1.5.2
    Cover                       : Yes
    Attachments                 : cover.jpg

    Video
    ID                          : 1
    ID in the original source m : 4113 (0x1011)
    Format                      : AVC
    Format/Info                 : Advanced Video Codec
    Format profile              : High@L4.1
    Format settings             : CABAC / 2 Ref Frames
    Format settings, CABAC      : Yes
    Format settings, Reference  : 2 frames
    Format settings, GOP        : M=1, N=10
    Codec ID                    : V_MPEG4/ISO/AVC
    Duration                    : 1 h 34 min
    Bit rate mode               : Variable
    Bit rate                    : 24.9 Mb/s
    Width                       : 1 920 pixels
    Height                      : 1 080 pixels
    Display aspect ratio        : 16:9
    Frame rate mode             : Constant
    Frame rate                  : 23.976 (24000/1001) FPS
    Color space                 : YUV
    Chroma subsampling          : 4:2:0
    Bit depth                   : 8 bits
    Scan type                   : Progressive
    Bits/(Pixel*Frame)          : 0.500
    Stream size                 : 16.4 GiB (88%)
    Default                     : Yes
    Forced                      : No
    Original source medium      : Blu-ray

    Audio #1
    ID                          : 2
    ID in the original source m : 4352 (0x1100)
    Format                      : DTS XLL
    Format/Info                 : Digital Theater Systems
    Commercial name             : DTS-HD Master Audio
    Codec ID                    : A_DTS
    Duration                    : 1 h 34 min
    Bit rate mode               : Variable
    Bit rate                    : 2 146 kb/s
    Channel(s)                  : 6 channels
    Channel layout              : C L R Ls Rs LFE
    Sampling rate               : 48.0 kHz
    Frame rate                  : 93.750 FPS (512 SPF)
    Bit depth                   : 16 bits
    Compression mode            : Lossless
    Stream size                 : 1.42 GiB (8%)
    Language                    : English
    Default                     : No
    Forced                      : No
    Original source medium      : Blu-ray

    Audio #2
    ID                          : 3
    ID in the original source m : 4353 (0x1101)
    Format                      : AC-3
    Format/Info                 : Audio Coding 3
    Commercial name             : Dolby Digital
    Codec ID                    : A_AC3
    Duration                    : 1 h 34 min
    Bit rate mode               : Constant
    Bit rate                    : 640 kb/s
    Channel(s)                  : 6 channels
    Channel layout              : L R C LFE Ls Rs
    Sampling rate               : 48.0 kHz
    Frame rate                  : 31.250 FPS (1536 SPF)
    Compression mode            : Lossy
    Stream size                 : 433 MiB (2%)
    Language                    : English
    Service kind                : Complete Main
    Default                     : No
    Forced                      : No
    Original source medium      : Blu-ray

    Audio #3
    ID                          : 4
    ID in the original source m : 4356 (0x1104)
    Format                      : AC-3
    Format/Info                 : Audio Coding 3
    Commercial name             : Dolby Digital
    Codec ID                    : A_AC3
    Duration                    : 1 h 34 min
    Bit rate mode               : Constant
    Bit rate                    : 640 kb/s
    Channel(s)                  : 6 channels
    Channel layout              : L R C LFE Ls Rs
    Sampling rate               : 48.0 kHz
    Frame rate                  : 31.250 FPS (1536 SPF)
    Compression mode            : Lossy
    Stream size                 : 433 MiB (2%)
    Language                    : Spanish
    Service kind                : Complete Main
    Default                     : Yes
    Forced                      : No
    Original source medium      : Blu-ray

    Text
    ID                          : 5
    ID in the original source m : 4611 (0x1203)
    Format                      : PGS
    Muxing mode                 : zlib
    Codec ID                    : S_HDMV/PGS
    Codec ID/Info               : Picture based subtitle format used on BDs/HD-DVDs
    Duration                    : 1 h 29 min
    Bit rate                    : 47.3 kb/s
    Frame rate                  : 0.639 FPS
    Count of elements           : 3416
    Stream size                 : 30.1 MiB (0%)
    Language                    : Spanish
    Default                     : No
    Forced                      : No
    Original source medium      : Blu-ray

    Menu
    00:00:00.000                : en:Capítulo 01
    00:03:53.483                : en:Capítulo 02
    00:09:34.073                : en:Capítulo 03
    00:14:36.625                : en:Capítulo 04
    00:20:05.287                : en:Capítulo 05
    00:27:21.014                : en:Capítulo 06
    00:34:03.666                : en:Capítulo 07
    00:40:19.166                : en:Capítulo 08
    00:45:21.635                : en:Capítulo 09
    00:50:42.706                : en:Capítulo 10
    00:57:41.541                : en:Capítulo 11
    01:05:34.555                : en:Capítulo 12
    01:11:51.682                : en:Capítulo 13
    01:20:06.510                : en:Capítulo 14
    01:25:16.736                : en:Capítulo 15
    01:29:47.298                : en:Capítulo 16

     

  • Peso: 18.7 GiB

Sinopsis

Cuando Jay (Jason Segel) y Annie (Cameron Diaz) entablaron relación, la atracción entre ambos era muy intensa. Diez años y dos hijos después, se dan cuenta de que hay que reavivar la llama de la pasión. Deciden entonces grabarse en vídeo mientras mantienen una maratoniana sesión sexual de tres horas. El problema surge cuando descubren que el vídeo ha sido enviado por error a sus amigos y familiares.

Ficha técnica

  • Titulo original: Sex Tape
  • Fecha de lanzamiento: 17-07-2014 (United States of America)
  • Director: Anne Rapp, Jake Kasdan
  • Género: Comedia

Video trailer de la película

Enlaces de descarga

Rip de Bluray

Descargar Sex Tape (2014) REMUX 1080p Latino – CMHDD




Aportes de DPeliculasHDmega la pass es:dpeliculashdmega.org Aportes de CinemaniaHD la pass es:cinemaniahdd.com Aportes recientes:cinemaniahdd.net
Guardado en : Comedia

Películas relacionadas

descargar Sex Tape (2014) REMUX 1080p Latino – CMHDD Full 1080p 1080p gratis, Sex Tape (2014) REMUX 1080p Latino – CMHDD Full 1080p mega 1 link, Sex Tape (2014) REMUX 1080p Latino – CMHDD Full 1080p pelicula completa, descargar Sex Tape (2014) REMUX 1080p Latino – CMHDD Full 1080p gratis en mega.

Sex Tape (2014) REMUX 1080p Latino – CMHDD pelicula full hd, Sex Tape (2014) REMUX 1080p Latino – CMHDD mega latino, Sex Tape (2014) REMUX 1080p Latino – CMHDD 4k latino, Sex Tape (2014) REMUX 1080p Latino – CMHDD pelicula completa, Sex Tape (2014) REMUX 1080p Latino – CMHDD descargar gratis, descargar Sex Tape (2014) REMUX 1080p Latino – CMHDD pelicula latino, Sex Tape (2014) REMUX 1080p Latino – CMHDD 1 link mega, Sex Tape (2014) REMUX 1080p Latino – CMHDD 1 link google drive, Sex Tape (2014) REMUX 1080p Latino – CMHDD hd 1080p latino.
Comentarios 0