×

¿Problemas para descargar con Mozilla, EDGE? Deshabilita la opción "Abrir vinculos en una pestaña nueva" tal como lo muestra ésta imagen.

Seventeen (2019) NF WEB-DL 1080p Castellano

743 vistas

Información de Seventeen (2019) NF WEB-DL 1080p Castellano

Datos de la película

  • Calidad: WEBDL
  • Audio: Español España AC3 5.1 Netflix - Ingles AC3 5.1
  • Subtitulos: Español Latino SRT- FORZADOS SRT
  • Resolución: 1920x1080
  • Formato: MKV
  • Codec: H.264
  • Encoder: cinemaniahdd
  • Mediainfo: Clic para Mostrar Datos Ver
  • Seventeen (2019) NF WEB-DL 1080p Castellano.mkv
    Format                      : Matroska
    Format version              : Version 4
    File size                   : 3.92 GiB
    Duration                    : 1 h 39 min
    Overall bit rate mode       : Variable
    Overall bit rate            : 5 626 kb/s
    Movie name                  : Seventeen (2019) - CinemaniaHDD.Net
    Encoded date                : UTC 2019-10-18 08:43:45
    Writing application         : mkvmerge v38.0.0 ('The Silent Type') 64-bit
    Writing library             : libebml v1.3.9 + libmatroska v1.5.2

    Video
    ID                          : 1
    Format                      : AVC
    Format/Info                 : Advanced Video Codec
    Format profile              : Main@L4
    Format settings             : CABAC / 3 Ref Frames
    Format settings, CABAC      : Yes
    Format settings, ReFrames   : 3 frames
    Codec ID                    : V_MPEG4/ISO/AVC
    Duration                    : 1 h 39 min
    Bit rate mode               : Variable
    Bit rate                    : 4 870 kb/s
    Maximum bit rate            : 7 305 kb/s
    Width                       : 1 920 pixels
    Height                      : 1 080 pixels
    Display aspect ratio        : 16:9
    Frame rate mode             : Constant
    Frame rate                  : 25.000 FPS
    Color space                 : YUV
    Chroma subsampling          : 4:2:0
    Bit depth                   : 8 bits
    Scan type                   : Progressive
    Bits/(Pixel*Frame)          : 0.094
    Stream size                 : 3.38 GiB (86%)
    Title                       : CinemaniaHDD
    Writing library             : x264 core 148 r2715 7e75228
    Encoding settings           : cabac=1 / ref=3 / deblock=1:0:0 / analyse=0x1:0x111 / me=umh / subme=10 / psy=1 / psy_rd=1.00:0.00 / mixed_ref=1 / me_range=24 / chroma_me=1 / trellis=2 / 8x8dct=0 / cqm=0 / deadzone=21,11 / fast_pskip=1 / chroma_qp_offset=-2 / threads=8 / lookahead_threads=1 / sliced_threads=0 / nr=0 / decimate=1 / interlaced=0 / bluray_compat=0 / stitchable=1 / constrained_intra=0 / bframes=2 / b_pyramid=0 / b_adapt=2 / b_bias=0 / direct=3 / weightb=1 / open_gop=0 / weightp=2 / keyint=250 / keyint_min=25 / scenecut=0 / intra_refresh=0 / rc_lookahead=50 / rc=2pass / mbtree=1 / bitrate=4870 / ratetol=1.0 / qcomp=0.50 / qpmin=6 / qpmax=51 / qpstep=4 / cplxblur=20.0 / qblur=0.5 / vbv_maxrate=7305 / vbv_bufsize=9740 / nal_hrd=vbr / filler=0 / ip_ratio=1.40 / aq=1:1.00
    Default                     : Yes
    Forced                      : No

    Audio #1
    ID                          : 2
    Format                      : AC-3
    Format/Info                 : Audio Coding 3
    Commercial name             : Dolby Digital
    Codec ID                    : A_AC3
    Duration                    : 1 h 39 min
    Bit rate mode               : Constant
    Bit rate                    : 384 kb/s
    Channel(s)                  : 6 channels
    Channel layout              : L R C LFE Ls Rs
    Sampling rate               : 48.0 kHz
    Frame rate                  : 31.250 FPS (1536 SPF)
    Bit depth                   : 16 bits
    Compression mode            : Lossy
    Stream size                 : 274 MiB (7%)
    Title                       : Español Castellano [CinemaniaHDD]
    Language                    : Spanish
    Service kind                : Complete Main
    Default                     : Yes
    Forced                      : No

    Audio #2
    ID                          : 3
    Format                      : AC-3
    Format/Info                 : Audio Coding 3
    Commercial name             : Dolby Digital
    Codec ID                    : A_AC3
    Duration                    : 1 h 39 min
    Bit rate mode               : Constant
    Bit rate                    : 384 kb/s
    Channel(s)                  : 6 channels
    Channel layout              : L R C LFE Ls Rs
    Sampling rate               : 48.0 kHz
    Frame rate                  : 31.250 FPS (1536 SPF)
    Bit depth                   : 16 bits
    Compression mode            : Lossy
    Stream size                 : 274 MiB (7%)
    Title                       : Inglés [CinemaniaHDD]
    Language                    : English
    Service kind                : Complete Main
    Default                     : No
    Forced                      : No

    Text #1
    ID                          : 4
    Format                      : UTF-8
    Codec ID                    : S_TEXT/UTF8
    Codec ID/Info               : UTF-8 Plain Text
    Duration                    : 1 h 39 min
    Bit rate                    : 70 b/s
    Count of elements           : 1379
    Stream size                 : 51.6 KiB (0%)
    Title                       : Forzados [CinemaniaHDD]
    Language                    : Spanish
    Default                     : Yes
    Forced                      : Yes

    Text #2
    ID                          : 5
    Format                      : UTF-8
    Codec ID                    : S_TEXT/UTF8
    Codec ID/Info               : UTF-8 Plain Text
    Duration                    : 1 h 39 min
    Bit rate                    : 69 b/s
    Count of elements           : 1374
    Stream size                 : 50.6 KiB (0%)
    Title                       : Castellano [CinemaniaHDD]
    Language                    : Spanish
    Default                     : No
    Forced                      : No

     

  • Peso: 3.92 GiB

Sinopsis

Héctor es un joven de 17 años que lleva dos interno en un centro de menores. Insociable y poco comunicativo, apenas se relaciona con nadie hasta que se anima a participar en una terapia de reinserción con perros. Allí, el chico establece un vínculo indisoluble con una perra a la que llama Oveja. Pero un día la perra es adoptada y Héctor se muestra incapaz de aceptarlo. A pesar de que le quedan menos de dos meses para cumplir su internamiento, decide escaparse para ir en busca de su perra. El centro se pone en contacto con su hermano mayor, Ismael, su tutor legal, que trata de convencerle de que vuelva al centro, pero Héctor se niega: nada le va a parar hasta que dé con su perra. Ismael se verá entonces obligado a acompañarle en esta quijotesca odisea, para asegurarse de que no se meta en líos, porque Héctor está a dos días de cumplir los 18 años y a partir de entonces, cualquier delito que cometa no le enviará de vuelta al centro, sino a la cárcel…

Ficha técnica

Video trailer de la película

Enlaces de descarga

Rip de Bluray

Descargar Seventeen (2019) NF WEB-DL 1080p Castellano




Aportes de DPeliculasHDmega la pass es:dpeliculashdmega.org Aportes de CinemaniaHD la pass es:cinemaniahdd.com
Guardado en : Drama , Netflix

Películas relacionadas

  • Togo (2022) NF WEB-DL 1080p Latino

    Togo (2022) NF WEB-DL 1080p Latino

    2022
    Togo (2022) NF WEB-DL 1080p Latino

    1h 35m 2022

    Descargar Togo (2022) NF WEB-DL 1080p Latino. Los narcos de poca monta están copando las calles de Montevideo...

    Director: Adrián Caetano

    Género: Crimen

    Actores: Tito Prieto

  • El Ultimo Juego (2021) WEB-DL 1080p Latino

    El Ultimo Juego (2021) WEB-DL 1080p Latino

    2021
    El Ultimo Juego (2021) WEB-DL 1080p Latino

    1h 21m 2021

    Descargar El Ultimo Juego (2021) WEB-DL 1080p Latino. 6 extraños se despiertan dentro de una habitación...

    Director: John David Moffat IV

    Género: Drama

    Actores: Yasmin Irvine

descargar Seventeen (2019) NF WEB-DL 1080p Castellano WEBDL 1080p gratis, Seventeen (2019) NF WEB-DL 1080p Castellano WEBDL mega 1 link, Seventeen (2019) NF WEB-DL 1080p Castellano WEBDL pelicula completa, descargar Seventeen (2019) NF WEB-DL 1080p Castellano WEBDL gratis en mega.

Seventeen (2019) NF WEB-DL 1080p Castellano pelicula full hd, Seventeen (2019) NF WEB-DL 1080p Castellano mega latino, Seventeen (2019) NF WEB-DL 1080p Castellano 4k latino, Seventeen (2019) NF WEB-DL 1080p Castellano pelicula completa, Seventeen (2019) NF WEB-DL 1080p Castellano descargar gratis, descargar Seventeen (2019) NF WEB-DL 1080p Castellano pelicula latino, Seventeen (2019) NF WEB-DL 1080p Castellano 1 link mega, Seventeen (2019) NF WEB-DL 1080p Castellano 1 link google drive, Seventeen (2019) NF WEB-DL 1080p Castellano hd 1080p latino.
Comentarios 0