Servants of War (2019) WEB-DL 1080p Latino

43 vistas
1 estrella2 estrellas3 estrellas4 estrellas5 estrellas (1 votos, promedio: 5,00 de 5)
Cargando...

Información de Servants of War (2019) WEB-DL 1080p Latino

Datos de la película

  • Calidad: 1080p
  • Audio: Español Latino AC3 2.0 WEB-DL - Ingles AC3 2.0 WEB-DL
  • Subtitulos: Español Latino SRT- FORZADOS SRT
  • Resolución: 1920x1040
  • Formato: MKV
  • Codec: H.264
  • Encoder: cinemaniahdd
  • Mediainfo: Clic para Mostrar Datos Ver
  • Servants of War (2019) WEB-DL 1080p Latino [CNMNHDD].mkv
    Format                      : Matroska
    Format version              : Version 4
    File size                   : 7.24 GiB
    Duration                    : 1 h 42 min
    Overall bit rate            : 10.1 Mb/s
    Movie name                  : Servants of War (2019) - CinemaniaHDD.Net
    Encoded date                : UTC 2021-07-25 21:15:37
    Writing application         : mkvmerge v56.1.0 ('My Friend') 64-bit
    Writing library             : libebml v1.4.2 + libmatroska v1.6.4

    Video
    ID                          : 1
    Format                      : AVC
    Format/Info                 : Advanced Video Codec
    Format profile              : High@L4
    Format settings             : CABAC / 4 Ref Frames
    Format settings, CABAC      : Yes
    Format settings, Reference  : 4 frames
    Codec ID                    : V_MPEG4/ISO/AVC
    Duration                    : 1 h 42 min
    Bit rate mode               : Constant
    Bit rate                    : 9 350 kb/s
    Width                       : 1 920 pixels
    Height                      : 1 040 pixels
    Display aspect ratio        : 1.85:1
    Frame rate mode             : Constant
    Frame rate                  : 24.000 FPS
    Color space                 : YUV
    Chroma subsampling          : 4:2:0
    Bit depth                   : 8 bits
    Scan type                   : Progressive
    Bits/(Pixel*Frame)          : 0.195
    Stream size                 : 6.69 GiB (92%)
    Title                       : CinemaniaHDD
    Language                    : English
    Default                     : Yes
    Forced                      : No
    Color range                 : Limited
    Color primaries             : BT.709
    Transfer characteristics    : BT.709
    Matrix coefficients         : BT.709

    Audio #1
    ID                          : 2
    Format                      : AC-3
    Format/Info                 : Audio Coding 3
    Commercial name             : Dolby Digital
    Codec ID                    : A_AC3
    Duration                    : 1 h 42 min
    Bit rate mode               : Constant
    Bit rate                    : 384 kb/s
    Channel(s)                  : 2 channels
    Channel layout              : L R
    Sampling rate               : 48.0 kHz
    Frame rate                  : 31.250 FPS (1536 SPF)
    Compression mode            : Lossy
    Stream size                 : 281 MiB (4%)
    Title                       : Español latino [CinemaniaHDD]
    Language                    : Spanish
    Service kind                : Complete Main
    Default                     : Yes
    Forced                      : No

    Audio #2
    ID                          : 3
    Format                      : AC-3
    Format/Info                 : Audio Coding 3
    Commercial name             : Dolby Digital
    Codec ID                    : A_AC3
    Duration                    : 1 h 42 min
    Bit rate mode               : Constant
    Bit rate                    : 384 kb/s
    Channel(s)                  : 2 channels
    Channel layout              : L R
    Sampling rate               : 48.0 kHz
    Frame rate                  : 31.250 FPS (1536 SPF)
    Compression mode            : Lossy
    Stream size                 : 281 MiB (4%)
    Title                       : Inglés [CinemaniaHDD]
    Language                    : English
    Service kind                : Complete Main
    Default                     : No
    Forced                      : No

    Text #1
    ID                          : 4
    Format                      : UTF-8
    Codec ID                    : S_TEXT/UTF8
    Codec ID/Info               : UTF-8 Plain Text
    Duration                    : 1 h 6 min
    Bit rate                    : 0 b/s
    Count of elements           : 4
    Stream size                 : 190 Bytes (0%)
    Title                       : Forzados [CinemaniaHDD]
    Language                    : Spanish
    Default                     : Yes
    Forced                      : Yes

    Text #2
    ID                          : 5
    Format                      : UTF-8
    Codec ID                    : S_TEXT/UTF8
    Codec ID/Info               : UTF-8 Plain Text
    Duration                    : 1 h 37 min
    Bit rate                    : 44 b/s
    Count of elements           : 981
    Stream size                 : 31.5 KiB (0%)
    Title                       : Español latino [CinemaniaHDD]
    Language                    : Spanish
    Default                     : No
    Forced                      : No

     

  • Peso: 7.24 GiB

Sinopsis

El conocido profesor Professor Jerzy Abramski es asesinado. De su investigación se encarga el inspector Wojciech Samborski y su ayudante, la oficial Marta Zadara. Ambos dan por sentado que tras el asesinato se esconde su amante. Sin embargo, su muerte cambia por completo el devenir de los acontecimientos. La fundación «Helpful Hand», fundada por el profesor Amramski, atrae la atención de la policía. La investigación les llevará a descubrir una trama de corrupción basada en el tráfico de órganos. Todo se complica aún más cuando ambos policías empiezan a mantener una relación sentimental entre ellos, lo que complica las pesquisas del caso.

Ficha técnica

  • Titulo original: Sługi wojny
  • Fecha de lanzamiento: 22-08-2019 (Poland)
  • Director: Mariusz Gawryś
  • Género: Crimen, Suspenso
  • Puntuación: 5.0 1 votos
  • Duración:
    1h 38m

Video trailer de la película

Enlaces de descarga

Rip de Bluray

Descargar Servants of War (2019) WEB-DL 1080p Latino




Aportes de DPeliculasHDmega la pass es:dpeliculashdmega.org Aportes de CinemaniaHD la pass es:cinemaniahdd.com
Guardado en : Crimen , Suspenso

Películas relacionadas

Servants of War (2019) WEB-DL 1080p Latino pelicula full hd, Servants of War (2019) WEB-DL 1080p Latino mega latino, Servants of War (2019) WEB-DL 1080p Latino 4k latino, Servants of War (2019) WEB-DL 1080p Latino pelicula completa, Servants of War (2019) WEB-DL 1080p Latino descargar gratis, descargar Servants of War (2019) WEB-DL 1080p Latino pelicula latino, Servants of War (2019) WEB-DL 1080p Latino 1 link mega, Servants of War (2019) WEB-DL 1080p Latino 1 link google drive, Servants of War (2019) WEB-DL 1080p Latino hd 1080p latino.
Comentarios 0