×

¿Problemas para descargar con Mozilla, EDGE? Deshabilita la opción "Abrir vinculos en una pestaña nueva" tal como lo muestra ésta imagen.

Serenity (2005) REMUX 1080p Latino – CMHDD

223 vistas

Información de Serenity (2005) REMUX 1080p Latino – CMHDD

Datos de la película

  • Calidad: Full 1080p
  • Audio: Español Latino DTS 5.1 BLURAY - Ingles DTS 5.1 BLURAY
  • Subtitulos: Español Latino PGS
  • Resolución: 1920x1080p
  • Formato: MKV
  • Codec: H.264
  • Encoder: Dracarys
  • Mediainfo: Clic para Mostrar Datos Ver
  • Format                      : Matroska
    Format version              : Version 4
    File size                   : 21.3 GiB
    Duration                    : 1 h 59 min
    Overall bit rate mode       : Variable
    Overall bit rate            : 25.6 Mb/s
    Movie name                  : Serenity (2005) REMUX 1080p Latino - CMHDD
    Encoded date                : UTC 2023-03-05 00:14:16
    Writing application         : mkvmerge v47.0.0 ('Black Flag') 64-bit
    Writing library             : libebml v1.3.10 + libmatroska v1.5.2
    Cover                       : Yes
    Attachments                 : cover.jpg

    Video
    ID                          : 1
    ID in the original source m : 4113 (0x1011)
    Format                      : VC-1
    Format profile              : Advanced@L3
    Codec ID                    : V_MS/VFW/FOURCC / WVC1
    Codec ID/Hint               : Microsoft
    Duration                    : 1 h 59 min
    Bit rate                    : 20.5 Mb/s
    Width                       : 1 920 pixels
    Height                      : 1 080 pixels
    Display aspect ratio        : 16:9
    Frame rate mode             : Constant
    Frame rate                  : 23.976 (24000/1001) FPS
    Color space                 : YUV
    Chroma subsampling          : 4:2:0
    Bit depth                   : 8 bits
    Scan type                   : Progressive
    Compression mode            : Lossy
    Bits/(Pixel*Frame)          : 0.413
    Stream size                 : 17.1 GiB (80%)
    Default                     : Yes
    Forced                      : No
    Original source medium      : Blu-ray

    Audio #1
    ID                          : 2
    ID in the original source m : 4352 (0x1100)
    Format                      : DTS XLL
    Format/Info                 : Digital Theater Systems
    Commercial name             : DTS-HD Master Audio
    Codec ID                    : A_DTS
    Duration                    : 1 h 59 min
    Bit rate mode               : Variable
    Bit rate                    : 4 309 kb/s
    Channel(s)                  : 6 channels
    Channel layout              : C L R Ls Rs LFE
    Sampling rate               : 48.0 kHz
    Frame rate                  : 93.750 FPS (512 SPF)
    Bit depth                   : 24 bits
    Compression mode            : Lossless
    Stream size                 : 3.58 GiB (17%)
    Language                    : English
    Default                     : No
    Forced                      : No
    Original source medium      : Blu-ray

    Audio #2
    ID                          : 3
    ID in the original source m : 4353 (0x1101)
    Format                      : DTS
    Format/Info                 : Digital Theater Systems
    Codec ID                    : A_DTS
    Duration                    : 1 h 59 min
    Bit rate mode               : Constant
    Bit rate                    : 768 kb/s
    Channel(s)                  : 6 channels
    Channel layout              : C L R Ls Rs LFE
    Sampling rate               : 48.0 kHz
    Frame rate                  : 93.750 FPS (512 SPF)
    Bit depth                   : 24 bits
    Compression mode            : Lossy
    Stream size                 : 654 MiB (3%)
    Language                    : Spanish
    Default                     : Yes
    Forced                      : No
    Original source medium      : Blu-ray

    Text
    ID                          : 4
    ID in the original source m : 4609 (0x1201)
    Format                      : PGS
    Muxing mode                 : zlib
    Codec ID                    : S_HDMV/PGS
    Codec ID/Info               : Picture based subtitle format used on BDs/HD-DVDs
    Duration                    : 1 h 52 min
    Bit rate                    : 33.9 kb/s
    Frame rate                  : 0.394 FPS
    Count of elements           : 2671
    Stream size                 : 27.4 MiB (0%)
    Language                    : Spanish
    Default                     : No
    Forced                      : No
    Original source medium      : Blu-ray

    Menu
    00:00:00.000                : en:Capítulo 01
    00:05:01.759                : en:Capítulo 02
    00:09:32.446                : en:Capítulo 03
    00:14:50.097                : en:Capítulo 04
    00:19:50.856                : en:Capítulo 05
    00:29:14.002                : en:Capítulo 06
    00:36:19.260                : en:Capítulo 07
    00:44:10.272                : en:Capítulo 08
    00:49:55.701                : en:Capítulo 09
    00:55:45.050                : en:Capítulo 10
    00:59:29.315                : en:Capítulo 11
    01:04:46.257                : en:Capítulo 12
    01:09:14.733                : en:Capítulo 13
    01:13:34.785                : en:Capítulo 14
    01:22:39.579                : en:Capítulo 15
    01:30:19.580                : en:Capítulo 16
    01:36:58.479                : en:Capítulo 17
    01:45:57.726                : en:Capítulo 18
    01:47:38.118                : en:Capítulo 19
    01:53:22.670                : en:Capítulo 20
    01:58:55.962                : en:Capítulo 21

  • Peso: 21.3 GiB

Sinopsis

Siglo XXVI. Tras ganar la guerra Civil Galáctica, las dos grandes potencias mundiales, EE.UU. y China, se unen para formar un gobierno totalitario llamado Alianza Universal. El Capitán Malcolm Reynolds es un curtido veterano de la guerra que se gana la vida alquilando su nave, la Serenity y buscando trabajos al margen de la ley. Su única familia es una pequeña y leal tripulación de disidentes y rebeldes. Cuando Malcom embarca a dos nuevos pasajeros, un médico y su inestable hermana, que está dotada de poderes telepáticos, enseguida descubre que ambos son fugitivos de la Alianza y que ésta no se detendrá hasta dar con la chica. Y, en efecto, la tripulación de la Serenity se verá atrapada entre el poderoso ejército de la Alianza y los Ravers, salvajes bárbaros que vagan por los confines del espacio. Así las cosas, empiezan a darse cuenta de que quizá el mayor peligro se encuentra a bordo de la Serenity.

Ficha técnica

Video trailer de la película

Enlaces de descarga

Rip de Bluray

Descargar Serenity (2005) REMUX 1080p Latino – CMHDD


Aportes de DPeliculasHDmega la pass es:dpeliculashdmega.org Aportes de CinemaniaHD la pass es:cinemaniahdd.com Aportes recientes:cinemaniahdd.net

Películas relacionadas

  • Combate clandestino (2024) AMZN WEB-DL 1080p Latino

    Combate clandestino (2024) AMZN WEB-DL 1080p Latino

    2024
    Combate clandestino (2024) AMZN WEB-DL 1080p Latino

    1h 30m 2024

    Descargar Combate clandestino (2024) AMZN WEB-DL 1080p Latino. Un ex soldado a la deriva se convierte...

    Director: Christian Sesma

    Género: Acción

    Actores: Tyler Wombles

  • ¡Patos! (2023) HD 1080p Latino

    ¡Patos! (2023) HD 1080p Latino

    2023
    ¡Patos! (2023) HD 1080p Latino

    1h 23m 2023

    Descargar ¡Patos! (2023) HD 1080p Latino. Después de que una familia de patos migratorios aterriza...

    Director: Guy-Laurent Homsy

    Género: Acción

    Actores: Zeno Robinson

  • ¡Patos! (2023) PLACEBO Full HD 1080p Latino

    ¡Patos! (2023) PLACEBO Full HD 1080p Latino

    2023
    ¡Patos! (2023) PLACEBO Full HD 1080p Latino

    1h 23m 2023

    Descargar ¡Patos! (2023) PLACEBO Full HD 1080p Latino. Después de que una familia de patos migratorios...

    Director: Guy-Laurent Homsy

    Género: Acción

    Actores: Zeno Robinson

  • ¡Patos! (2023) REMUX 1080p Latino

    ¡Patos! (2023) REMUX 1080p Latino

    2023
    ¡Patos! (2023) REMUX 1080p Latino

    1h 23m 2023

    Descargar ¡Patos! (2023) REMUX 1080p Latino. Después de que una familia de patos migratorios aterriza...

    Director: Guy-Laurent Homsy

    Género: Acción

    Actores: Zeno Robinson

descargar Serenity (2005) REMUX 1080p Latino – CMHDD Full 1080p 1080p gratis, Serenity (2005) REMUX 1080p Latino – CMHDD Full 1080p mega 1 link, Serenity (2005) REMUX 1080p Latino – CMHDD Full 1080p pelicula completa, descargar Serenity (2005) REMUX 1080p Latino – CMHDD Full 1080p gratis en mega.

Serenity (2005) REMUX 1080p Latino – CMHDD pelicula full hd, Serenity (2005) REMUX 1080p Latino – CMHDD mega latino, Serenity (2005) REMUX 1080p Latino – CMHDD 4k latino, Serenity (2005) REMUX 1080p Latino – CMHDD pelicula completa, Serenity (2005) REMUX 1080p Latino – CMHDD descargar gratis, descargar Serenity (2005) REMUX 1080p Latino – CMHDD pelicula latino, Serenity (2005) REMUX 1080p Latino – CMHDD 1 link mega, Serenity (2005) REMUX 1080p Latino – CMHDD 1 link google drive, Serenity (2005) REMUX 1080p Latino – CMHDD hd 1080p latino.
Comentarios 0