×

¿Problemas para descargar con Mozilla, EDGE? Deshabilita la opción "Abrir vinculos en una pestaña nueva" tal como lo muestra ésta imagen.

Señorita 89 (2022) Primera Temporada AMZN WEB-DL 1080p Latino

897 vistas

Información de Señorita 89 (2022) Primera Temporada AMZN WEB-DL 1080p Latino

Datos de la película

  • Calidad: 1080p
  • Audio: Español Latino AC3 5.1
  • Subtitulos: Ingles SRT
  • Resolución: 1920x960
  • Formato: MKV
  • Codec: H.264
  • Encoder: cinemaniahdd
  • Mediainfo: Clic para Mostrar Datos Ver
  • Señorita 89 T01E01 AMZN WEB-DL 1080p Latino [CNMNHDD].mkv
    Format                      : Matroska
    Format version              : Version 4
    File size                   : 3.19 GiB
    Duration                    : 47 min 58 s
    Overall bit rate            : 9 520 kb/s
    Movie name                  : Señorita 89 S01E01 - Elena [1080p] [CNMNHDD]
    Encoded date                : UTC 2022-03-27 18:42:34
    Writing application         : mkvmerge v56.1.0 ('My Friend') 64-bit
    Writing library             : libebml v1.4.2 + libmatroska v1.6.4

    Video
    ID                          : 1
    Format                      : AVC
    Format/Info                 : Advanced Video Codec
    Format profile              : High@L4
    Format settings             : CABAC / 4 Ref Frames
    Format settings, CABAC      : Yes
    Format settings, Reference  : 4 frames
    Codec ID                    : V_MPEG4/ISO/AVC
    Duration                    : 47 min 57 s
    Bit rate mode               : Constant
    Bit rate                    : 8 878 kb/s
    Nominal bit rate            : 10 000 kb/s
    Width                       : 1 920 pixels
    Height                      : 960 pixels
    Display aspect ratio        : 2.000
    Frame rate mode             : Constant
    Frame rate                  : 23.976 (24000/1001) FPS
    Color space                 : YUV
    Chroma subsampling          : 4:2:0
    Bit depth                   : 8 bits
    Scan type                   : Progressive
    Bits/(Pixel*Frame)          : 0.201
    Stream size                 : 2.97 GiB (93%)
    Title                       : CinemaniaHDD
    Default                     : Yes
    Forced                      : No
    Color range                 : Limited
    Color primaries             : BT.709
    Transfer characteristics    : BT.709
    Matrix coefficients         : BT.709

    Audio
    ID                          : 2
    Format                      : E-AC-3
    Format/Info                 : Enhanced AC-3
    Commercial name             : Dolby Digital Plus
    Codec ID                    : A_EAC3
    Duration                    : 47 min 58 s
    Bit rate mode               : Constant
    Bit rate                    : 640 kb/s
    Channel(s)                  : 6 channels
    Channel layout              : L R C LFE Ls Rs
    Sampling rate               : 48.0 kHz
    Frame rate                  : 31.250 FPS (1536 SPF)
    Bit depth                   : 32 bits
    Compression mode            : Lossy
    Stream size                 : 220 MiB (7%)
    Title                       : Español latino [CinemaniaHDD]
    Language                    : Spanish
    Service kind                : Complete Main
    Default                     : Yes
    Forced                      : No

    Text #1
    ID                          : 3
    Format                      : UTF-8
    Codec ID                    : S_TEXT/UTF8
    Codec ID/Info               : UTF-8 Plain Text
    Duration                    : 14 min 24 s
    Bit rate                    : 0 b/s
    Count of elements           : 3
    Stream size                 : 83.0 Bytes (0%)
    Title                       : English [Forced]
    Language                    : English
    Default                     : No
    Forced                      : Yes

    Text #2
    ID                          : 4
    Format                      : UTF-8
    Codec ID                    : S_TEXT/UTF8
    Codec ID/Info               : UTF-8 Plain Text
    Duration                    : 45 min 40 s
    Bit rate                    : 50 b/s
    Count of elements           : 521
    Stream size                 : 16.8 KiB (0%)
    Title                       : English [Full]
    Language                    : English
    Default                     : No
    Forced                      : No

    Menu
    00:00:00.000                : Scene 1
    00:05:58.000                : Title Sequence
    00:07:05.000                : Scene 3
    00:16:08.000                : Scene 4
    00:24:16.000                : Scene 5
    00:33:10.000                : Scene 6
    00:39:27.000                : Scene 7
    00:45:59.000                : Scene 8
    00:47:53.000                : Scene 9

     

  • Peso: 3.19 GiB Aprox ---- 22 GiB in 8 Chapters.

Sinopsis

Diferentes candidatas llegan a la finca La Encantada para convertirse en Señorita México. Cada aspirante trae consigo su propio pasado, así como la ilusión de ser la ganadora. En el camino descubrirán los oscuros secretos que hay para conseguir la corona.

Ficha técnica

  • Titulo original: Señorita 89
  • Fecha de lanzamiento: 27-02-2022 (CL)
  • Género: Drama, Series

Video trailer de la película

Enlaces de descarga

Rip de Bluray

Descargar Señorita 89 (2022) Primera Temporada AMZN WEB-DL 1080p Latino




Aportes de DPeliculasHDmega la pass es:dpeliculashdmega.org Aportes de CinemaniaHD la pass es:cinemaniahdd.com
Guardado en : Drama , Series

Películas relacionadas

  • Stromboli (2022) NF WEB-DL 1080p Latino

    Stromboli (2022) NF WEB-DL 1080p Latino

    2022
    Stromboli (2022) NF WEB-DL 1080p Latino

    1h 26m 2022

    Descargar Stromboli (2022) NF WEB-DL 1080p Latino. Sara, una mujer que se ha divorciado recientemente,...

    Director: Michiel van Erp

    Género: Drama

    Actores: Tim McInnerny

  • Infiesto (2023) NF WEB-DL 1080p Castellano

    Infiesto (2023) NF WEB-DL 1080p Castellano

    2023
    Infiesto (2023) NF WEB-DL 1080p Castellano

    1h 36m 2023

    Descargar Infiesto (2023) NF WEB-DL 1080p Castellano. Mientras el coronavirus trastoca sus vidas, dos...

    Director: Patxi Amezcua

    Género: Crimen

    Actores: Luis Zahera

  • Espiritu Libre (2023) NF WEB-DL 1080p Latino

    Espiritu Libre (2023) NF WEB-DL 1080p Latino

    2023
    Espiritu Libre (2023) NF WEB-DL 1080p Latino

    1h 49m 2023

    Descargar Espiritu Libre (2023) NF WEB-DL 1080p Latino. La película se basa en la increíble historia...

    Director: Sarah Spillane

    Género: Aventura

    Actores: Vivien Turner

descargar Señorita 89 (2022) Primera Temporada AMZN WEB-DL 1080p Latino 1080p 1080p gratis, Señorita 89 (2022) Primera Temporada AMZN WEB-DL 1080p Latino 1080p mega 1 link, Señorita 89 (2022) Primera Temporada AMZN WEB-DL 1080p Latino 1080p serie completa, descargar Señorita 89 (2022) Primera Temporada AMZN WEB-DL 1080p Latino 1080p gratis en mega.

Señorita 89 (2022) Primera Temporada AMZN WEB-DL 1080p Latino pelicula full hd, Señorita 89 (2022) Primera Temporada AMZN WEB-DL 1080p Latino mega latino, Señorita 89 (2022) Primera Temporada AMZN WEB-DL 1080p Latino 4k latino, Señorita 89 (2022) Primera Temporada AMZN WEB-DL 1080p Latino pelicula completa, Señorita 89 (2022) Primera Temporada AMZN WEB-DL 1080p Latino descargar gratis, descargar Señorita 89 (2022) Primera Temporada AMZN WEB-DL 1080p Latino pelicula latino, Señorita 89 (2022) Primera Temporada AMZN WEB-DL 1080p Latino 1 link mega, Señorita 89 (2022) Primera Temporada AMZN WEB-DL 1080p Latino 1 link google drive, Señorita 89 (2022) Primera Temporada AMZN WEB-DL 1080p Latino hd 1080p latino.
Comentarios 2
  • HENRY RAMIREZ MOLINA - 29 marzo, 2022

    Me ha sido imposible por más que he querido, descargar capítulos de la serie SEÑORITA 89, he tratado de seguir los pasos hasta llegar a los links de descarga pero lo único que hacen es redireccionar hacia otras páginas y aunque se sigan las misas, se vuelve imparable el ir a otras páginas sin ningun resultado, si me pueden ayudar, les agradecería mucho

    • CinemaniaHDD - 29 marzo, 2022

      Hola, debes borrar la cache y el historial de tu navegador web, y cuando te redireccione a otras paginas solo deja esas pestañas abiertas eso es parte del proceso, solo debes de volver a la pestaña inicial del proceso.