×

¿Problemas para descargar con Mozilla, EDGE? Deshabilita la opción "Abrir vinculos en una pestaña nueva" tal como lo muestra ésta imagen.

Señora Influencer (2023) WEB-DL 1080p Latino

59 vistas

Información de Señora Influencer (2023) WEB-DL 1080p Latino

Datos de la película

  • Calidad: WEBDL
  • Audio: Español Latino AC3 2.0
  • Subtitulos: Español Latino SRT- FORZADOS SRT
  • Resolución: 1920x800p
  • Formato: MKV
  • Codec: H.264
  • Encoder: Melkor
  • Mediainfo: Clic para Mostrar Datos Ver
  • Miss Influencer (2023) WEB 1080p Latino.mkv
    Format                      : Matroska
    Format version              : Version 4
    File size                   : 6.55 GiB
    Duration                    : 1 h 51 min
    Overall bit rate            : 8 414 kb/s
    Movie name                  : Miss Influencer (2023) CinemaniaHDD.Net
    Encoded date                : UTC 2024-01-27 05:42:05
    Writing application         : mkvmerge v56.1.0 ('My Friend') 64-bit
    Writing library             : libebml v1.4.2 + libmatroska v1.6.4
    Attachments                 : CINEMANIAHD.png
    Site                        : CinemaniaHDD.Net
    Uploader                    : Melkor

    Video
    ID                          : 1
    Format                      : AVC
    Format/Info                 : Advanced Video Codec
    Format profile              : High@L4
    Format settings             : CABAC / 4 Ref Frames
    Format settings, CABAC      : Yes
    Format settings, Reference  : 4 frames
    Codec ID                    : V_MPEG4/ISO/AVC
    Duration                    : 1 h 51 min
    Bit rate mode               : Constant
    Bit rate                    : 8 188 kb/s
    Nominal bit rate            : 10 000 kb/s
    Width                       : 1 920 pixels
    Height                      : 800 pixels
    Display aspect ratio        : 2.40:1
    Frame rate mode             : Constant
    Frame rate                  : 24.000 FPS
    Color space                 : YUV
    Chroma subsampling          : 4:2:0
    Bit depth                   : 8 bits
    Scan type                   : Progressive
    Bits/(Pixel*Frame)          : 0.222
    Stream size                 : 6.37 GiB (97%)
    Title                       : WEB HD1080p [CinemaniaHDD]
    Default                     : Yes
    Forced                      : Yes
    Color range                 : Limited
    Color primaries             : BT.709
    Transfer characteristics    : BT.709
    Matrix coefficients         : BT.709

    Audio
    ID                          : 2
    Format                      : AC-3
    Format/Info                 : Audio Coding 3
    Commercial name             : Dolby Digital
    Codec ID                    : A_AC3
    Duration                    : 1 h 51 min
    Bit rate mode               : Constant
    Bit rate                    : 224 kb/s
    Channel(s)                  : 2 channels
    Channel layout              : L R
    Sampling rate               : 48.0 kHz
    Frame rate                  : 31.250 FPS (1536 SPF)
    Compression mode            : Lossy
    Stream size                 : 179 MiB (3%)
    Title                       : Español [CinemaniaHDD]
    Language                    : Spanish
    Service kind                : Complete Main
    Default                     : Yes
    Forced                      : Yes

    Text #1
    ID                          : 3
    Format                      : UTF-8
    Codec ID                    : S_TEXT/UTF8
    Codec ID/Info               : UTF-8 Plain Text
    Duration                    : 10 s 0 ms
    Bit rate                    : 65 b/s
    Count of elements           : 1
    Stream size                 : 82.0 Bytes (0%)
    Title                       : Forzados-SRT [CinemaniaHDD]
    Language                    : Spanish
    Default                     : Yes
    Forced                      : Yes

    Text #2
    ID                          : 4
    Format                      : UTF-8
    Codec ID                    : S_TEXT/UTF8
    Codec ID/Info               : UTF-8 Plain Text
    Duration                    : 1 h 46 min
    Bit rate                    : 73 b/s
    Count of elements           : 1777
    Stream size                 : 57.0 KiB (0%)
    Title                       : Español-SRT [CinemaniaHDD]
    Language                    : Spanish
    Default                     : No
    Forced                      : No

  • Peso: 6.55 GiB

Sinopsis

Descargar Señora Influencer (2023) WEB-DL 1080p Latino. De la noche a la mañana, Fátima, una mujer en sus cuarentas, se convierte en la influencer más famosa del momento. Sofi y Cami, un par de jóvenes influencers, intentarán aprovecharse de la repentina popularidad de Fátima fingiendo ser sus amigas. En la misma medida que Fátima logra tener seguidores que la aman, también atraerá a haters escondidos detrás de una pantalla, sin saber que se han burlado del perfil equivocado.

Ficha técnica

Video trailer de la película

Enlaces de descarga

Rip de Bluray

Descargar Señora Influencer (2023) WEB-DL 1080p Latino




Aportes de DPeliculasHDmega la pass es:dpeliculashdmega.org Aportes de CinemaniaHD la pass es:cinemaniahdd.com Aportes recientes:cinemaniahdd.net
Guardado en : Comedia , Drama , Suspenso

Películas relacionadas

descargar Señora Influencer (2023) WEB-DL 1080p Latino WEBDL 1080p gratis, Señora Influencer (2023) WEB-DL 1080p Latino WEBDL mega 1 link, Señora Influencer (2023) WEB-DL 1080p Latino WEBDL pelicula completa, descargar Señora Influencer (2023) WEB-DL 1080p Latino WEBDL gratis en mega.

Señora Influencer (2023) WEB-DL 1080p Latino pelicula full hd, Señora Influencer (2023) WEB-DL 1080p Latino mega latino, Señora Influencer (2023) WEB-DL 1080p Latino 4k latino, Señora Influencer (2023) WEB-DL 1080p Latino pelicula completa, Señora Influencer (2023) WEB-DL 1080p Latino descargar gratis, descargar Señora Influencer (2023) WEB-DL 1080p Latino pelicula latino, Señora Influencer (2023) WEB-DL 1080p Latino 1 link mega, Señora Influencer (2023) WEB-DL 1080p Latino 1 link google drive, Señora Influencer (2023) WEB-DL 1080p Latino hd 1080p latino.
Comentarios 0