×

¿Problemas para descargar con Mozilla, EDGE? Deshabilita la opción "Abrir vinculos en una pestaña nueva" tal como lo muestra ésta imagen.

Seeking Justice (2011) REMUX 1080p Latino – CMHDD

132 vistas

Información de Seeking Justice (2011) REMUX 1080p Latino – CMHDD

Datos de la película

  • Calidad: Full 1080p
  • Audio: Español Latino AC3 2.0 DVD - Ingles DTS 5.1 BLURAY
  • Subtitulos: Español Latino SRT
  • Resolución: 1920x1080p
  • Formato: MKV
  • Codec: H.264
  • Encoder: Dracarys
  • Mediainfo: Clic para Mostrar Datos Ver
  • Format                      : Matroska
    Format version              : Version 4
    File size                   : 17.0 GiB
    Duration                    : 1 h 45 min
    Overall bit rate mode       : Variable
    Overall bit rate            : 23.1 Mb/s
    Movie name                  : Seeking Justice (2011) REMUX 1080p Latino - CMHDD
    Encoded date                : UTC 2021-08-12 17:48:23
    Writing application         : mkvmerge v56.1.0 ('My Friend') 64-bit
    Writing library             : libebml v1.4.2 + libmatroska v1.6.4

    Video
    ID                          : 1
    ID in the original source m : 4113 (0x1011)
    Format                      : AVC
    Format/Info                 : Advanced Video Codec
    Format profile              : High@L4.1
    Format settings             : CABAC / 4 Ref Frames
    Format settings, CABAC      : Yes
    Format settings, Reference  : 4 frames
    Codec ID                    : V_MPEG4/ISO/AVC
    Duration                    : 1 h 45 min
    Bit rate mode               : Variable
    Bit rate                    : 20.0 Mb/s
    Maximum bit rate            : 32.0 Mb/s
    Width                       : 1 920 pixels
    Height                      : 1 080 pixels
    Display aspect ratio        : 16:9
    Frame rate mode             : Constant
    Frame rate                  : 24.000 FPS
    Standard                    : NTSC
    Color space                 : YUV
    Chroma subsampling          : 4:2:0
    Bit depth                   : 8 bits
    Scan type                   : Progressive
    Bits/(Pixel*Frame)          : 0.402
    Stream size                 : 14.7 GiB (86%)
    Default                     : Yes
    Forced                      : No
    Color range                 : Limited
    Color primaries             : BT.709
    Transfer characteristics    : BT.709
    Matrix coefficients         : BT.709
    Original source medium      : Blu-ray

    Audio #1
    ID                          : 2
    ID in the original source m : 4352 (0x1100)
    Format                      : DTS XLL
    Format/Info                 : Digital Theater Systems
    Commercial name             : DTS-HD Master Audio
    Codec ID                    : A_DTS
    Duration                    : 1 h 45 min
    Bit rate mode               : Variable
    Bit rate                    : 2 683 kb/s
    Channel(s)                  : 6 channels
    Channel layout              : C L R Ls Rs LFE
    Sampling rate               : 48.0 kHz
    Frame rate                  : 93.750 FPS (512 SPF)
    Bit depth                   : 16 bits
    Compression mode            : Lossless
    Stream size                 : 1.97 GiB (12%)
    Language                    : English
    Default                     : No
    Forced                      : No
    Original source medium      : Blu-ray

    Audio #2
    ID                          : 3
    Format                      : AC-3
    Format/Info                 : Audio Coding 3
    Commercial name             : Dolby Digital
    Codec ID                    : A_AC3
    Duration                    : 1 h 44 min
    Bit rate mode               : Constant
    Bit rate                    : 448 kb/s
    Channel(s)                  : 6 channels
    Channel layout              : L R C LFE Ls Rs
    Sampling rate               : 48.0 kHz
    Frame rate                  : 31.250 FPS (1536 SPF)
    Compression mode            : Lossy
    Stream size                 : 336 MiB (2%)
    Language                    : Spanish
    Service kind                : Complete Main
    Default                     : Yes
    Forced                      : No

    Text
    ID                          : 4
    Format                      : UTF-8
    Codec ID                    : S_TEXT/UTF8
    Codec ID/Info               : UTF-8 Plain Text
    Duration                    : 1 h 39 min
    Bit rate                    : 49 b/s
    Count of elements           : 1064
    Stream size                 : 36.1 KiB (0%)
    Language                    : Spanish
    Default                     : No
    Forced                      : No

    Menu
    00:00:00.000                : Chapter 01
    00:08:46.833                : Chapter 02
    00:19:30.000                : Chapter 03
    00:28:36.416                : Chapter 04
    00:36:45.833                : Chapter 05
    00:46:19.416                : Chapter 06
    00:56:21.000                : Chapter 07
    01:03:30.000                : Chapter 08
    01:12:38.500                : Chapter 09
    01:21:04.082                : Chapter 10
    01:29:34.166                : Chapter 11
    01:39:49.000                : Chapter 12

  • Peso: 6.28 GiB

Sinopsis

El profesor Will Gerard (Nicolas Cage) y su mujer Laura (January Jones) llevan una vida tranquila, pero una noche Laura es víctima de una brutal agresión sexual. En el hospital, un misterioso tipo llamado Simon (Guy Pearce) se dirige a Will y se ofrece para hacer justicia y ahorrarles el suplicio de tener que pasar por un proceso judicial. Will está tan alterado que de manera irreflexiva acepta la propuesta. a partir de ese momento se verá metido en una organización justiciera clandestina.

Ficha técnica

Video trailer de la película

Enlaces de descarga

Rip de Bluray

Descargar Seeking Justice (2011) REMUX 1080p Latino – CMHDD


Aportes de DPeliculasHDmega la pass es:dpeliculashdmega.org Aportes de CinemaniaHD la pass es:cinemaniahdd.com
Guardado en : Acción , Drama , Suspenso

Películas relacionadas

  • El Ultimo Juego (2021) WEB-DL 1080p Latino

    El Ultimo Juego (2021) WEB-DL 1080p Latino

    2021
    El Ultimo Juego (2021) WEB-DL 1080p Latino

    1h 21m 2021

    Descargar El Ultimo Juego (2021) WEB-DL 1080p Latino. 6 extraños se despiertan dentro de una habitación...

    Director: John David Moffat IV

    Género: Drama

    Actores: Yasmin Irvine

  • DC Liga De Supermascotas (2022) HD 1080p Latino

    DC Liga De Supermascotas (2022) HD 1080p Latino

    2022
    DC Liga De Supermascotas (2022) HD 1080p Latino

    1h 45m 2022

    Descargar DC Liga De Supermascotas (2022) HD 1080p Latino. Krypto el Superperro y Superman son amigos...

    Director: Sam Levine

    Género: Acción

    Actores: Yvette Nicole Brown

  • Invitacion Al Infierno (2022) MA WEB-DL 1080p Latino

    Invitacion Al Infierno (2022) MA WEB-DL 1080p Latino

    2022
    Invitacion Al Infierno (2022) MA WEB-DL 1080p Latino

    1h 45m 2022

    Descargar Invitacion Al Infierno (2022) MA WEB-DL 1080p Latino. Tras la muerte de su madre y quedarse...

    Director: Jessica M. Thompson

    Género: Suspenso

    Actores: Virág Bárány

descargar Seeking Justice (2011) REMUX 1080p Latino – CMHDD Full 1080p 1080p gratis, Seeking Justice (2011) REMUX 1080p Latino – CMHDD Full 1080p mega 1 link, Seeking Justice (2011) REMUX 1080p Latino – CMHDD Full 1080p pelicula completa, descargar Seeking Justice (2011) REMUX 1080p Latino – CMHDD Full 1080p gratis en mega.

Seeking Justice (2011) REMUX 1080p Latino – CMHDD pelicula full hd, Seeking Justice (2011) REMUX 1080p Latino – CMHDD mega latino, Seeking Justice (2011) REMUX 1080p Latino – CMHDD 4k latino, Seeking Justice (2011) REMUX 1080p Latino – CMHDD pelicula completa, Seeking Justice (2011) REMUX 1080p Latino – CMHDD descargar gratis, descargar Seeking Justice (2011) REMUX 1080p Latino – CMHDD pelicula latino, Seeking Justice (2011) REMUX 1080p Latino – CMHDD 1 link mega, Seeking Justice (2011) REMUX 1080p Latino – CMHDD 1 link google drive, Seeking Justice (2011) REMUX 1080p Latino – CMHDD hd 1080p latino.
Comentarios 0