×

¿Problemas para descargar con Mozilla, EDGE? Deshabilita la opción "Abrir vinculos en una pestaña nueva" tal como lo muestra ésta imagen.

Seeking a Friend for the End of the World (2012) REMUX 1080p Latino – CMHDD

159 vistas

Información de Seeking a Friend for the End of the World (2012) REMUX 1080p Latino – CMHDD

Datos de la película

  • Calidad: Full 1080p
  • Audio: Español Latino DTS 5.1 BLURAY - Ingles DTS 5.1 BLURAY
  • Subtitulos: Español Latino PGS
  • Resolución: 1920x1080p
  • Formato: MKV
  • Codec: H.264
  • Encoder: Dracarys
  • Mediainfo: Clic para Mostrar Datos Ver
  • Format                      : Matroska
    Format version              : Version 4
    File size                   : 24.7 GiB
    Duration                    : 1 h 41 min
    Overall bit rate mode       : Variable
    Overall bit rate            : 35.1 Mb/s
    Movie name                  : Seeking a Friend for the End of the World (2012) REMUX 1080p Latino - CMHDD 
    Encoded date                : UTC 2023-08-24 01:08:57
    Writing application         : mkvmerge v47.0.0 ('Black Flag') 64-bit
    Writing library             : libebml v1.3.10 + libmatroska v1.5.2
    Cover                       : Yes
    Attachments                 : cover.jpg

    Video
    ID                          : 1
    ID in the original source m : 4113 (0x1011)
    Format                      : AVC
    Format/Info                 : Advanced Video Codec
    Format profile              : High@L4.1
    Format settings             : CABAC / 4 Ref Frames
    Format settings, CABAC      : Yes
    Format settings, Reference  : 4 frames
    Format settings, GOP        : M=3, N=12
    Codec ID                    : V_MPEG4/ISO/AVC
    Duration                    : 1 h 41 min
    Bit rate mode               : Variable
    Bit rate                    : 31.0 Mb/s
    Maximum bit rate            : 35.0 Mb/s
    Width                       : 1 920 pixels
    Height                      : 1 080 pixels
    Display aspect ratio        : 16:9
    Frame rate mode             : Constant
    Frame rate                  : 23.976 (24000/1001) FPS
    Color space                 : YUV
    Chroma subsampling          : 4:2:0
    Bit depth                   : 8 bits
    Scan type                   : Progressive
    Bits/(Pixel*Frame)          : 0.624
    Stream size                 : 21.9 GiB (88%)
    Default                     : Yes
    Forced                      : No
    Original source medium      : Blu-ray

    Audio #1
    ID                          : 2
    ID in the original source m : 4352 (0x1100)
    Format                      : DTS XLL
    Format/Info                 : Digital Theater Systems
    Commercial name             : DTS-HD Master Audio
    Codec ID                    : A_DTS
    Duration                    : 1 h 41 min
    Bit rate mode               : Variable
    Bit rate                    : 3 277 kb/s
    Channel(s)                  : 6 channels
    Channel layout              : C L R Ls Rs LFE
    Sampling rate               : 48.0 kHz
    Frame rate                  : 93.750 FPS (512 SPF)
    Bit depth                   : 24 bits
    Compression mode            : Lossless
    Stream size                 : 2.31 GiB (9%)
    Language                    : English
    Default                     : No
    Forced                      : No
    Original source medium      : Blu-ray

    Audio #2
    ID                          : 3
    ID in the original source m : 4353 (0x1101)
    Format                      : DTS
    Format/Info                 : Digital Theater Systems
    Codec ID                    : A_DTS
    Duration                    : 1 h 41 min
    Bit rate mode               : Constant
    Bit rate                    : 768 kb/s
    Channel(s)                  : 6 channels
    Channel layout              : C L R Ls Rs LFE
    Sampling rate               : 48.0 kHz
    Frame rate                  : 93.750 FPS (512 SPF)
    Bit depth                   : 24 bits
    Compression mode            : Lossy
    Stream size                 : 555 MiB (2%)
    Language                    : Spanish
    Default                     : Yes
    Forced                      : No
    Original source medium      : Blu-ray

    Text
    ID                          : 4
    ID in the original source m : 4609 (0x1201)
    Format                      : PGS
    Muxing mode                 : zlib
    Codec ID                    : S_HDMV/PGS
    Codec ID/Info               : Picture based subtitle format used on BDs/HD-DVDs
    Duration                    : 1 h 32 min
    Bit rate                    : 36.6 kb/s
    Frame rate                  : 0.424 FPS
    Count of elements           : 2365
    Stream size                 : 24.3 MiB (0%)
    Language                    : Spanish
    Default                     : No
    Forced                      : No
    Original source medium      : Blu-ray

    Menu
    00:00:00.000                : en:Capítulo 01
    00:04:28.017                : en:Capítulo 02
    00:10:30.546                : en:Capítulo 03
    00:16:37.329                : en:Capítulo 04
    00:21:35.043                : en:Capítulo 05
    00:24:58.079                : en:Capítulo 06
    00:31:22.589                : en:Capítulo 07
    00:35:11.400                : en:Capítulo 08
    00:40:37.685                : en:Capítulo 09
    00:45:17.840                : en:Capítulo 10
    00:50:00.622                : en:Capítulo 11
    00:54:46.700                : en:Capítulo 12
    01:01:06.412                : en:Capítulo 13
    01:05:32.011                : en:Capítulo 14
    01:13:14.181                : en:Capítulo 15
    01:17:37.611                : en:Capítulo 16
    01:21:50.280                : en:Capítulo 17
    01:25:44.889                : en:Capítulo 18
    01:28:24.966                : en:Capítulo 19
    01:33:57.089                : en:Capítulo 20

  • Peso: 24.7 GiB

Sinopsis

Un hombre (Carell), abandonado por su mujer la víspera de la caída de un meteorito que destruirá la Tierra, decide buscar a su novia de la adolescencia y para ello cuenta con la ayuda de su joven vecina (Knightley).

Ficha técnica

Video trailer de la película

Enlaces de descarga

Rip de Bluray

Descargar Seeking a Friend for the End of the World (2012) REMUX 1080p Latino – CMHDD


Aportes de DPeliculasHDmega la pass es:dpeliculashdmega.org Aportes de CinemaniaHD la pass es:cinemaniahdd.com Aportes recientes:cinemaniahdd.net
Guardado en : Aventura , Comedia , Drama , Romance

Películas relacionadas

descargar Seeking a Friend for the End of the World (2012) REMUX 1080p Latino – CMHDD Full 1080p 1080p gratis, Seeking a Friend for the End of the World (2012) REMUX 1080p Latino – CMHDD Full 1080p mega 1 link, Seeking a Friend for the End of the World (2012) REMUX 1080p Latino – CMHDD Full 1080p pelicula completa, descargar Seeking a Friend for the End of the World (2012) REMUX 1080p Latino – CMHDD Full 1080p gratis en mega.

Seeking a Friend for the End of the World (2012) REMUX 1080p Latino – CMHDD pelicula full hd, Seeking a Friend for the End of the World (2012) REMUX 1080p Latino – CMHDD mega latino, Seeking a Friend for the End of the World (2012) REMUX 1080p Latino – CMHDD 4k latino, Seeking a Friend for the End of the World (2012) REMUX 1080p Latino – CMHDD pelicula completa, Seeking a Friend for the End of the World (2012) REMUX 1080p Latino – CMHDD descargar gratis, descargar Seeking a Friend for the End of the World (2012) REMUX 1080p Latino – CMHDD pelicula latino, Seeking a Friend for the End of the World (2012) REMUX 1080p Latino – CMHDD 1 link mega, Seeking a Friend for the End of the World (2012) REMUX 1080p Latino – CMHDD 1 link google drive, Seeking a Friend for the End of the World (2012) REMUX 1080p Latino – CMHDD hd 1080p latino.
Comentarios 0