×

¿Problemas para descargar con Mozilla, EDGE? Deshabilita la opción "Abrir vinculos en una pestaña nueva" tal como lo muestra ésta imagen.

El hijo de Chucky (2004) Full HD 1080p Latino

2.992 vistas

Información de El hijo de Chucky (2004) Full HD 1080p Latino

Datos de la película

  • Calidad: Full 1080p
  • Audio: Español Latino AC3 2.0 BLURAY - Ingles DTS 5.1 BLURAY
  • Subtitulos: Español Latino PGS - Ingles PGS
  • Resolución: 1920x1080p
  • Formato: MKV
  • Codec: H.264
  • Encoder: dpelis1
  • Mediainfo: Clic para Mostrar Datos Ver
  • El Hijo De Chucky (2004) Full HD 1080p Latino-CMHDD.mkv
    Format                      : Matroska
    Format version              : Version 4
    File size                   : 5.81 GiB
    Duration                    : 1 h 27 min
    Overall bit rate            : 9 535 kb/s
    Movie name                  : Seed Of Chucky (2004) CinemaniaHDD.Net
    Encoded date                : UTC 2022-07-22 05:02:44
    Writing application         : mkvmerge v56.1.0 ('My Friend') 64-bit
    Writing library             : libebml v1.4.2 + libmatroska v1.6.4
    Attachments                 : CINEMANIAHD.png

    Video
    ID                          : 1
    Format                      : AVC
    Format/Info                 : Advanced Video Codec
    Format profile              : High@L4.1
    Format settings             : CABAC / 4 Ref Frames
    Format settings, CABAC      : Yes
    Format settings, Reference  : 4 frames
    Codec ID                    : V_MPEG4/ISO/AVC
    Duration                    : 1 h 27 min
    Bit rate                    : 7 685 kb/s
    Width                       : 1 920 pixels
    Height                      : 1 080 pixels
    Display aspect ratio        : 16:9
    Frame rate mode             : Constant
    Frame rate                  : 23.976 (24000/1001) FPS
    Color space                 : YUV
    Chroma subsampling          : 4:2:0
    Bit depth                   : 8 bits
    Scan type                   : Progressive
    Bits/(Pixel*Frame)          : 0.155
    Stream size                 : 4.68 GiB (81%)
    Title                       : Full HD1080p [CinemaniaHDD]
    Writing library             : x264 core 148 r2708 86b7198
    Encoding settings           : cabac=1 / ref=4 / deblock=1:0:0 / analyse=0x3:0x133 / me=esa / subme=10 / psy=1 / psy_rd=1.00:0.00 / mixed_ref=1 / me_range=24 / chroma_me=1 / trellis=2 / 8x8dct=1 / cqm=0 / deadzone=21,11 / fast_pskip=1 / chroma_qp_offset=-2 / threads=12 / lookahead_threads=2 / sliced_threads=0 / nr=0 / decimate=1 / interlaced=0 / bluray_compat=0 / constrained_intra=0 / bframes=8 / b_pyramid=2 / b_adapt=2 / b_bias=0 / direct=3 / weightb=1 / open_gop=0 / weightp=2 / keyint=240 / keyint_min=24 / scenecut=40 / intra_refresh=0 / rc_lookahead=60 / rc=crf / mbtree=1 / crf=20.0 / qcomp=0.60 / qpmin=0 / qpmax=69 / qpstep=4 / vbv_maxrate=62500 / vbv_bufsize=78125 / crf_max=0.0 / nal_hrd=none / filler=0 / ip_ratio=1.40 / aq=1:1.00
    Default                     : Yes
    Forced                      : Yes
    Color range                 : Limited
    Color primaries             : BT.709
    Transfer characteristics    : BT.709
    Matrix coefficients         : BT.709

    Audio #1
    ID                          : 2
    Format                      : AC-3
    Format/Info                 : Audio Coding 3
    Commercial name             : Dolby Digital
    Codec ID                    : A_AC3
    Duration                    : 1 h 26 min
    Bit rate mode               : Constant
    Bit rate                    : 320 kb/s
    Channel(s)                  : 2 channels
    Channel layout              : L R
    Sampling rate               : 48.0 kHz
    Frame rate                  : 31.250 FPS (1536 SPF)
    Compression mode            : Lossy
    Stream size                 : 197 MiB (3%)
    Title                       : Español Latino [CinemaniaHDD]
    Language                    : Spanish
    Service kind                : Complete Main
    Default                     : Yes
    Forced                      : Yes

    Audio #2
    ID                          : 3
    Format                      : DTS
    Format/Info                 : Digital Theater Systems
    Codec ID                    : A_DTS
    Duration                    : 1 h 27 min
    Bit rate mode               : Constant
    Bit rate                    : 1 509 kb/s
    Channel(s)                  : 6 channels
    Channel layout              : C L R Ls Rs LFE
    Sampling rate               : 48.0 kHz
    Frame rate                  : 93.750 FPS (512 SPF)
    Bit depth                   : 24 bits
    Compression mode            : Lossy
    Stream size                 : 942 MiB (16%)
    Title                       : Ingles [CinemaniaHDD]
    Language                    : English
    Default                     : No
    Forced                      : No

    Text #1
    ID                          : 4
    Format                      : PGS
    Muxing mode                 : zlib
    Codec ID                    : S_HDMV/PGS
    Codec ID/Info               : Picture based subtitle format used on BDs/HD-DVDs
    Duration                    : 1 h 25 min
    Bit rate                    : 27.9 kb/s
    Count of elements           : 1760
    Stream size                 : 17.0 MiB (0%)
    Title                       : Español-PGS [CinemaniaHDD]
    Language                    : Spanish
    Default                     : No
    Forced                      : No

    Text #2
    ID                          : 5
    Format                      : PGS
    Muxing mode                 : zlib
    Codec ID                    : S_HDMV/PGS
    Codec ID/Info               : Picture based subtitle format used on BDs/HD-DVDs
    Duration                    : 1 h 24 min
    Bit rate                    : 40.3 kb/s
    Count of elements           : 2965
    Stream size                 : 24.5 MiB (0%)
    Title                       : Ingles-PGS [CinemaniaHDD]
    Language                    : English
    Default                     : No
    Forced                      : No

    Text #3
    ID                          : 6
    Format                      : UTF-8
    Codec ID                    : S_TEXT/UTF8
    Codec ID/Info               : UTF-8 Plain Text
    Duration                    : 42 min 55 s
    Bit rate                    : 0 b/s
    Count of elements           : 6
    Stream size                 : 149 Bytes (0%)
    Title                       : Forzados-SRT [CinemaniaHDD]
    Language                    : Spanish
    Default                     : Yes
    Forced                      : Yes

    Text #4
    ID                          : 7
    Format                      : UTF-8
    Codec ID                    : S_TEXT/UTF8
    Codec ID/Info               : UTF-8 Plain Text
    Duration                    : 1 h 18 min
    Bit rate                    : 51 b/s
    Count of elements           : 830
    Stream size                 : 29.8 KiB (0%)
    Title                       : Español-SRT [CinemaniaHDD]
    Language                    : Spanish
    Default                     : No
    Forced                      : No

    Menu
    00:00:00.000                : :Chapter 1
    00:03:15.320                : :Chapter 2
    00:07:22.233                : :Chapter 3
    00:09:13.219                : :Chapter 4
    00:14:16.481                : :Chapter 5
    00:16:52.678                : :Chapter 6
    00:19:03.768                : :Chapter 7
    00:25:11.802                : :Chapter 8
    00:27:41.827                : :Chapter 9
    00:31:44.111                : :Chapter 10
    00:33:51.196                : :Chapter 11
    00:36:21.930                : :Chapter 12
    00:42:32.592                : :Chapter 13
    00:48:20.064                : :Chapter 14
    00:54:17.838                : :Chapter 15
    01:00:01.890                : :Chapter 16
    01:05:43.940                : :Chapter 17
    01:11:02.759                : :Chapter 18
    01:17:06.413                : :Chapter 19
    01:21:22.252                : :Chapter 20

  • Peso: 5.81 GiB

Sinopsis

Descargar El hijo de Chucky (2004) Full HD 1080p Latino. La semilla de Chucky Glen actualidad, el hijo huérfano del irresistible Chucky y su esposa Tiffany retorcido. En Hollywood, una película sobre la leyenda urbana de sus padres sedientos de sangre y Glen utiliza para elevar se prepara. Pero las relaciones familiares están lejos de ser perfecta cuando Glen descubre que Chucky y Tiffany deliciosa lanzaron una carrera criminal como vicioso. Chucky no cree plenamente que su descendencia no va a seguir los rastros de sangre. Tiffany completamente suspendido por las estrellas de Hollywood, no sólo cree que el director ha elegido a Jennifer Tilly en la película. La actriz pronto se convierte, a su pesar, a la sede de la familia maravillosa.

RESUBIDO!!!

Ficha técnica

Video trailer de la película

Enlaces de descarga

Rip de Bluray

Descargar El hijo de Chucky (2004) Full HD 1080p Latino




Aportes de DPeliculasHDmega la pass es:dpeliculashdmega.org Aportes de CinemaniaHD la pass es:cinemaniahdd.com

Películas relacionadas

  • Emily la criminal (2022) HD 1080p Latino

    Emily la criminal (2022) HD 1080p Latino

    2022
    Emily la criminal (2022) HD 1080p Latino

    1h 37m 2022

    Descargar Emily la criminal (2022) HD 1080p Latino. Emily, que tiene una deuda estudiantil y está excluida...

    Director: John Patton Ford

    Género: Crimen

    Actores: Theo Rossi

  • Emily la criminal (2022) REMUX 1080p Latino

    Emily la criminal (2022) REMUX 1080p Latino

    2022
    Emily la criminal (2022) REMUX 1080p Latino

    1h 37m 2022

    Descargar Emily la criminal (2022) REMUX 1080p Latino. Emily, que tiene una deuda estudiantil y está...

    Director: John Patton Ford

    Género: Crimen

    Actores: Theo Rossi

  • Território Hostil (2022) HD 1080p Latino

    Território Hostil (2022) HD 1080p Latino

    2022
    Território Hostil (2022) HD 1080p Latino

    1h 34m 2022

    Descargar Território Hostil (2022) HD 1080p Latino. En los Estados Unidos posteriores a la guerra civil,...

    Director: Brian Presley

    Género: Drama

    Actores: Natalie Whittle

descargar El hijo de Chucky (2004) Full HD 1080p Latino Full 1080p 1080p gratis, El hijo de Chucky (2004) Full HD 1080p Latino Full 1080p mega 1 link, El hijo de Chucky (2004) Full HD 1080p Latino Full 1080p pelicula completa, descargar El hijo de Chucky (2004) Full HD 1080p Latino Full 1080p gratis en mega.

El hijo de Chucky (2004) Full HD 1080p Latino pelicula full hd, El hijo de Chucky (2004) Full HD 1080p Latino mega latino, El hijo de Chucky (2004) Full HD 1080p Latino 4k latino, El hijo de Chucky (2004) Full HD 1080p Latino pelicula completa, El hijo de Chucky (2004) Full HD 1080p Latino descargar gratis, descargar El hijo de Chucky (2004) Full HD 1080p Latino pelicula latino, El hijo de Chucky (2004) Full HD 1080p Latino 1 link mega, El hijo de Chucky (2004) Full HD 1080p Latino 1 link google drive, El hijo de Chucky (2004) Full HD 1080p Latino hd 1080p latino.
Comentarios 0