×

¿Problemas para descargar con Mozilla, EDGE? Deshabilita la opción "Abrir vinculos en una pestaña nueva" tal como lo muestra ésta imagen.

Seducidos por el Deseo (2022) REMUX 1080p Latino

136 vistas

Información de Seducidos por el Deseo (2022) REMUX 1080p Latino

Datos de la película

  • Calidad: Full 1080p
  • Audio: Se especifica abajo de la Sinopsis
  • Subtitulos: No
  • Resolución: 1920x1080p
  • Formato: MKV
  • Codec: H.264
  • Encoder: Melkor
  • Mediainfo: Clic para Mostrar Datos Ver
  • Seducidos por el Deseo (2022) REMUX 1080p Latino.mkv
    Format                      : Matroska
    Format version              : Version 4
    File size                   : 17.6 GiB
    Duration                    : 1 h 31 min
    Overall bit rate mode       : Variable
    Overall bit rate            : 27.6 Mb/s
    Movie name                  :  Obsessed (2022) [Oderzhimaya] CinemaniaHDD.Net
    Encoded date                : UTC 2024-02-10 10:02:05
    Writing application         : mkvmerge v56.1.0 ('My Friend') 64-bit
    Writing library             : libebml v1.4.2 + libmatroska v1.6.4
    Cover                       : Yes
    Attachments                 : CINEMANIAHD.png / cover.jpg

    Video
    ID                          : 1
    ID in the original source m : 4113 (0x1011)
    Format                      : AVC
    Format/Info                 : Advanced Video Codec
    Format profile              : High@L4.1
    Format settings             : CABAC / 3 Ref Frames
    Format settings, CABAC      : Yes
    Format settings, Reference  : 3 frames
    Codec ID                    : V_MPEG4/ISO/AVC
    Duration                    : 1 h 31 min
    Bit rate mode               : Variable
    Bit rate                    : 24.0 Mb/s
    Maximum bit rate            : 40.0 Mb/s
    Width                       : 1 920 pixels
    Height                      : 1 080 pixels
    Display aspect ratio        : 16:9
    Frame rate mode             : Constant
    Frame rate                  : 24.000 FPS
    Color space                 : YUV
    Chroma subsampling          : 4:2:0
    Bit depth                   : 8 bits
    Scan type                   : Progressive
    Bits/(Pixel*Frame)          : 0.482
    Stream size                 : 15.1 GiB (86%)
    Title                       : REMUX HD1080p [CinemaniaHDD]
    Writing library             : x264 core 158 r2988 7817004
    Encoding settings           : cabac=1 / ref=3 / deblock=1:-1:-1 / analyse=0x3:0x113 / me=hex / subme=7 / psy=1 / psy_rd=1.00:0.15 / mixed_ref=1 / me_range=16 / chroma_me=1 / trellis=1 / 8x8dct=1 / cqm=0 / deadzone=21,11 / fast_pskip=1 / chroma_qp_offset=-3 / threads=34 / lookahead_threads=5 / sliced_threads=0 / slices=4 / nr=0 / decimate=1 / interlaced=0 / bluray_compat=1 / constrained_intra=0 / bframes=3 / b_pyramid=1 / b_adapt=1 / b_bias=0 / direct=1 / weightb=1 / open_gop=1 / weightp=1 / keyint=24 / keyint_min=1 / scenecut=40 / intra_refresh=0 / rc_lookahead=24 / rc=abr / mbtree=1 / bitrate=24000 / ratetol=1.0 / qcomp=0.60 / qpmin=0 / qpmax=69 / qpstep=4 / vbv_maxrate=40000 / vbv_bufsize=30000 / nal_hrd=vbr / filler=0 / ip_ratio=1.40 / aq=1:1.00
    Default                     : Yes
    Forced                      : Yes
    Color range                 : Limited
    Color primaries             : BT.709
    Transfer characteristics    : BT.709
    Matrix coefficients         : BT.709
    Original source medium      : Blu-ray

    Audio #1
    ID                          : 2
    Format                      : AC-3
    Format/Info                 : Audio Coding 3
    Commercial name             : Dolby Digital
    Codec ID                    : A_AC3
    Duration                    : 1 h 31 min
    Bit rate mode               : Constant
    Bit rate                    : 256 kb/s
    Channel(s)                  : 2 channels
    Channel layout              : L R
    Sampling rate               : 48.0 kHz
    Frame rate                  : 31.250 FPS (1536 SPF)
    Compression mode            : Lossy
    Stream size                 : 167 MiB (1%)
    Title                       : Español Latino [CinemaniaHDD]
    Language                    : Spanish
    Service kind                : Complete Main
    Default                     : Yes
    Forced                      : Yes

    Audio #2
    ID                          : 3
    ID in the original source m : 4353 (0x1101)
    Format                      : DTS XLL
    Format/Info                 : Digital Theater Systems
    Commercial name             : DTS-HD Master Audio
    Codec ID                    : A_DTS
    Duration                    : 1 h 31 min
    Bit rate mode               : Variable
    Bit rate                    : 3 733 kb/s
    Channel(s)                  : 6 channels
    Channel layout              : C L R Ls Rs LFE
    Sampling rate               : 48.0 kHz
    Frame rate                  : 93.750 FPS (512 SPF)
    Bit depth                   : 24 bits
    Compression mode            : Lossless
    Stream size                 : 2.38 GiB (14%)
    Title                       : Ruso [CinemaniaHDD]
    Language                    : Russian
    Default                     : No
    Forced                      : No
    Original source medium      : Blu-ray

    Menu
    00:00:00.000                : Chapter 01
    00:07:16.875                : Chapter 02
    00:13:57.500                : Chapter 03
    00:19:39.166                : Chapter 04
    00:27:09.041                : Chapter 05
    00:35:14.166                : Chapter 06
    00:44:30.458                : Chapter 07
    00:49:55.875                : Chapter 08
    00:55:46.875                : Chapter 09
    01:01:42.625                : Chapter 10
    01:09:00.125                : Chapter 11
    01:18:09.625                : Chapter 12
    01:31:10.000                : Chapter 13

  • Peso: 17.6 GiB

Sinopsis

Descargar Seducidos por el Deseo (2022) REMUX 1080p Latino. La médica forense y patóloga Lisa examina un cadáver reciente y descubre que la fallecida es su amante accidental y que en su cuerpo hay una huella de una imagen siniestra.

Español AC3 2.0 – Ruso DTS-HD 5.1

Ficha técnica

Video trailer de la película

Enlaces de descarga

Rip de Bluray

Descargar Seducidos por el Deseo (2022) REMUX 1080p Latino




Aportes de DPeliculasHDmega la pass es:dpeliculashdmega.org Aportes de CinemaniaHD la pass es:cinemaniahdd.com Aportes recientes:cinemaniahdd.net
Guardado en : Drama , Remux , Suspenso

Películas relacionadas

  • The Chosen (2024) Temorada 4 WEB-DL 1080p Latino

    The Chosen (2024) Temorada 4 WEB-DL 1080p Latino

    2019
    The Chosen (2024) Temorada 4 WEB-DL 1080p Latino

    0h 43m 2019

    Por primera vez, la historia más grande jamás contada se presenta en una serie de varias temporadas....

    Director: Dallas Jenkins

    Género: Drama

    Actores: Yasmine Al-Bustami

  • Tiburón (1975) REMUX 1080p Latino-CMHDD

    Tiburón (1975) REMUX 1080p Latino-CMHDD

    1975
    Tiburón (1975) REMUX 1080p Latino-CMHDD

    2h 4m 1975

    Descargar Tiburón (1975) REMUX 1080p Latino-CMHDD. En la costa de un pequeño pueblo del Este de Estados...

    Director: Tom Joyner

    Género: Aventura

    Actores: Ted Grossman

descargar Seducidos por el Deseo (2022) REMUX 1080p Latino Full 1080p 1080p gratis, Seducidos por el Deseo (2022) REMUX 1080p Latino Full 1080p mega 1 link, Seducidos por el Deseo (2022) REMUX 1080p Latino Full 1080p pelicula completa, descargar Seducidos por el Deseo (2022) REMUX 1080p Latino Full 1080p gratis en mega.

Seducidos por el Deseo (2022) REMUX 1080p Latino pelicula full hd, Seducidos por el Deseo (2022) REMUX 1080p Latino mega latino, Seducidos por el Deseo (2022) REMUX 1080p Latino 4k latino, Seducidos por el Deseo (2022) REMUX 1080p Latino pelicula completa, Seducidos por el Deseo (2022) REMUX 1080p Latino descargar gratis, descargar Seducidos por el Deseo (2022) REMUX 1080p Latino pelicula latino, Seducidos por el Deseo (2022) REMUX 1080p Latino 1 link mega, Seducidos por el Deseo (2022) REMUX 1080p Latino 1 link google drive, Seducidos por el Deseo (2022) REMUX 1080p Latino hd 1080p latino.
Comentarios 0