×

¿Problemas para descargar con Mozilla, EDGE? Deshabilita la opción "Abrir vinculos en una pestaña nueva" tal como lo muestra ésta imagen.

Seducidos por el Deseo (2022) PLACEBO Full HD 1080p Latino

20 vistas

Información de Seducidos por el Deseo (2022) PLACEBO Full HD 1080p Latino

Datos de la película

  • Calidad: Full 1080p
  • Audio: Se especifica abajo de la Sinopsis
  • Subtitulos: No
  • Resolución: 1920x1080p
  • Formato: MKV
  • Codec: H.264
  • Encoder: Melkor
  • Mediainfo: Clic para Mostrar Datos Ver
  • Seducidos por el Deseo (2022) PLACEBO 1080p Latino.mkv
    Format                      : Matroska
    Format version              : Version 4
    File size                   : 7.92 GiB
    Duration                    : 1 h 31 min
    Overall bit rate            : 12.4 Mb/s
    Movie name                  :  Obsessed (2022) [Oderzhimaya] CinemaniaHDD.Net
    Encoded date                : UTC 2024-02-11 07:17:59
    Writing application         : mkvmerge v56.1.0 ('My Friend') 64-bit
    Writing library             : libebml v1.4.2 + libmatroska v1.6.4
    Cover                       : Yes
    Attachments                 : CINEMANIAHD.png / cover.jpg

    Video
    ID                          : 1
    Format                      : AVC
    Format/Info                 : Advanced Video Codec
    Format profile              : High@L4.1
    Format settings             : CABAC / 4 Ref Frames
    Format settings, CABAC      : Yes
    Format settings, Reference  : 4 frames
    Codec ID                    : V_MPEG4/ISO/AVC
    Duration                    : 1 h 31 min
    Bit rate                    : 10.6 Mb/s
    Width                       : 1 920 pixels
    Height                      : 1 080 pixels
    Display aspect ratio        : 16:9
    Frame rate mode             : Constant
    Frame rate                  : 24.000 FPS
    Color space                 : YUV
    Chroma subsampling          : 4:2:0
    Bit depth                   : 8 bits
    Scan type                   : Progressive
    Bits/(Pixel*Frame)          : 0.214
    Stream size                 : 6.79 GiB (86%)
    Title                       : Full HD1080p [CinemaniaHDD]
    Writing library             : x264 core 163 r3059 b684ebe0
    Encoding settings           : cabac=1 / ref=4 / deblock=1:0:0 / analyse=0x3:0x133 / me=tesa / subme=11 / psy=1 / psy_rd=1.00:0.00 / mixed_ref=1 / me_range=24 / chroma_me=1 / trellis=2 / 8x8dct=1 / cqm=0 / deadzone=21,11 / fast_pskip=0 / chroma_qp_offset=-2 / threads=24 / lookahead_threads=6 / sliced_threads=0 / nr=0 / decimate=1 / interlaced=0 / bluray_compat=0 / constrained_intra=0 / bframes=16 / b_pyramid=2 / b_adapt=2 / b_bias=0 / direct=3 / weightb=1 / open_gop=0 / weightp=2 / keyint=240 / keyint_min=24 / scenecut=40 / intra_refresh=0 / rc_lookahead=60 / rc=crf / mbtree=1 / crf=20.0 / qcomp=0.60 / qpmin=0 / qpmax=69 / qpstep=4 / vbv_maxrate=62500 / vbv_bufsize=78125 / crf_max=0.0 / nal_hrd=none / filler=0 / ip_ratio=1.40 / aq=1:1.00
    Default                     : Yes
    Forced                      : Yes
    Color range                 : Limited
    Color primaries             : BT.709
    Transfer characteristics    : BT.709
    Matrix coefficients         : BT.709

    Audio #1
    ID                          : 2
    Format                      : AC-3
    Format/Info                 : Audio Coding 3
    Commercial name             : Dolby Digital
    Codec ID                    : A_AC3
    Duration                    : 1 h 31 min
    Bit rate mode               : Constant
    Bit rate                    : 256 kb/s
    Channel(s)                  : 2 channels
    Channel layout              : L R
    Sampling rate               : 48.0 kHz
    Frame rate                  : 31.250 FPS (1536 SPF)
    Compression mode            : Lossy
    Stream size                 : 167 MiB (2%)
    Title                       : Español Latino [CinemaniaHDD]
    Language                    : Spanish
    Service kind                : Complete Main
    Default                     : Yes
    Forced                      : Yes

    Audio #2
    ID                          : 3
    Format                      : DTS
    Format/Info                 : Digital Theater Systems
    Codec ID                    : A_DTS
    Duration                    : 1 h 31 min
    Bit rate mode               : Constant
    Bit rate                    : 1 509 kb/s
    Channel(s)                  : 6 channels
    Channel layout              : C L R Ls Rs LFE
    Sampling rate               : 48.0 kHz
    Frame rate                  : 93.750 FPS (512 SPF)
    Bit depth                   : 24 bits
    Compression mode            : Lossy
    Stream size                 : 986 MiB (12%)
    Title                       : Ruso [CinemaniaHDD]
    Language                    : Russian
    Default                     : No
    Forced                      : No

    Menu
    00:00:00.000                : Chapter 01
    00:07:16.875                : Chapter 02
    00:13:57.500                : Chapter 03
    00:19:39.166                : Chapter 04
    00:27:09.041                : Chapter 05
    00:35:14.166                : Chapter 06
    00:44:30.458                : Chapter 07
    00:49:55.875                : Chapter 08
    00:55:46.875                : Chapter 09
    01:01:42.625                : Chapter 10
    01:09:00.125                : Chapter 11
    01:18:09.625                : Chapter 12
    01:31:10.000                : Chapter 13

  • Peso: 7.92 GiB

Sinopsis

Descargar Seducidos por el Deseo (2022) PLACEBO Full HD 1080p Latino. La médica forense y patóloga Lisa examina un cadáver reciente y descubre que la fallecida es su amante accidental y que en su cuerpo hay una huella de una imagen siniestra.

Español AC3 2.0 – Ruso DTS 5.1

Ficha técnica

Video trailer de la película

Enlaces de descarga

Rip de Bluray

Descargar Seducidos por el Deseo (2022) PLACEBO Full HD 1080p Latino




Aportes de DPeliculasHDmega la pass es:dpeliculashdmega.org Aportes de CinemaniaHD la pass es:cinemaniahdd.com Aportes recientes:cinemaniahdd.net

Películas relacionadas

  • Naturaleza Humana (2022) REMUX 1080p Latino

    Naturaleza Humana (2022) REMUX 1080p Latino

    2022
    Naturaleza Humana (2022) REMUX 1080p Latino

    1h 31m 2022

    Descargar Naturaleza Humana (2022) REMUX 1080p Latino. Una historia sobre la mayoría de edad contada...

    Director: Louie Gibson

    Género: Drama

    Actores: Tim Heidecker

  • Wonka (2023) Full HD 1080p Latino-CMHDD

    Wonka (2023) Full HD 1080p Latino-CMHDD

    2023
    Wonka (2023) Full HD 1080p Latino-CMHDD

    1h 57m 2023

    Descargar Wonka (2023) Full HD 1080p Latino-CMHDD. Basada en el personaje que protagoniza "Charlie y...

    Director: Zoe Morgan

    Género: Comedia

    Actores: Tracy Ifeachor

descargar Seducidos por el Deseo (2022) PLACEBO Full HD 1080p Latino Full 1080p 1080p gratis, Seducidos por el Deseo (2022) PLACEBO Full HD 1080p Latino Full 1080p mega 1 link, Seducidos por el Deseo (2022) PLACEBO Full HD 1080p Latino Full 1080p pelicula completa, descargar Seducidos por el Deseo (2022) PLACEBO Full HD 1080p Latino Full 1080p gratis en mega.

Seducidos por el Deseo (2022) PLACEBO Full HD 1080p Latino pelicula full hd, Seducidos por el Deseo (2022) PLACEBO Full HD 1080p Latino mega latino, Seducidos por el Deseo (2022) PLACEBO Full HD 1080p Latino 4k latino, Seducidos por el Deseo (2022) PLACEBO Full HD 1080p Latino pelicula completa, Seducidos por el Deseo (2022) PLACEBO Full HD 1080p Latino descargar gratis, descargar Seducidos por el Deseo (2022) PLACEBO Full HD 1080p Latino pelicula latino, Seducidos por el Deseo (2022) PLACEBO Full HD 1080p Latino 1 link mega, Seducidos por el Deseo (2022) PLACEBO Full HD 1080p Latino 1 link google drive, Seducidos por el Deseo (2022) PLACEBO Full HD 1080p Latino hd 1080p latino.
Comentarios 0