Secuestrado (2017) 1080p Latino

2.531 vistas
1 estrella2 estrellas3 estrellas4 estrellas5 estrellas (Ninguna valoración todavía)
Cargando…

Información de Secuestrado (2017) 1080p Latino

Datos de la película

  • Calidad: 1080p
  • Audio: Español Latino AC3 2.0 iTUNES - Ingles AC3 5.1 BLURAY
  • Subtitulos: Español Latino SRT
  • Resolución: 1920x800p
  • Formato: MKV
  • Codec: H.264
  • Encoder: Dpelis
  • Mediainfo: Clic para Mostrar Datos Ver
  • Kidnap (2017) 1080p Latino.mkv
    Format                      : Matroska
    Format version              : Version 4 / Version 2
    File size                   : 2.67 GiB
    Duration                    : 1 h 34 min
    Overall bit rate            : 4 024 kb/s
    Movie name                  : DPeliculasHDMega.ORG
    Encoded date                : UTC 2017-10-19 03:57:06 / UTC 2017-10-19T02:04:13Z
    Writing application         : mkvmerge v10.0.0 ('To Drown In You') 64bit
    Writing library             : libebml v1.3.4 + libmatroska v1.4.5 / Lavf57.7.2

    Video
    ID                          : 1
    Format                      : AVC
    Format/Info                 : Advanced Video Codec
    Format profile              : [email protected]
    Format settings, CABAC      : Yes
    Format settings, RefFrames  : 5 frames
    Codec ID                    : V_MPEG4/ISO/AVC
    Duration                    : 1 h 34 min
    Bit rate                    : 3 500 kb/s
    Width                       : 1 920 pixels
    Height                      : 800 pixels
    Display aspect ratio        : 16:9
    Frame rate mode             : Constant
    Frame rate                  : 23.976 (24000/1001) FPS
    Color space                 : YUV
    Chroma subsampling          : 4:2:0
    Bit depth                   : 8 bits
    Scan type                   : Progressive
    Bits/(Pixel*Frame)          : 0.095
    Stream size                 : 2.23 GiB (84%)
    Writing library             : x264 core 148 r2708 86b7198
    Encoding settings           : cabac=1 / ref=5 / deblock=1:0:0 / analyse=0x3:0x113 / me=umh / subme=8 / psy=1 / psy_rd=1.00:0.00 / mixed_ref=1 / me_range=16 / chroma_me=1 / trellis=1 / 8x8dct=1 / cqm=0 / deadzone=21,11 / fast_pskip=1 / chroma_qp_offset=-2 / threads=25 / lookahead_threads=4 / sliced_threads=0 / nr=0 / decimate=1 / interlaced=0 / bluray_compat=0 / constrained_intra=0 / bframes=3 / b_pyramid=2 / b_adapt=2 / b_bias=0 / direct=3 / weightb=1 / open_gop=0 / weightp=2 / keyint=240 / keyint_min=24 / scenecut=40 / intra_refresh=0 / rc_lookahead=50 / rc=abr / mbtree=1 / bitrate=3500 / ratetol=1.0 / qcomp=0.60 / qpmin=0 / qpmax=69 / qpstep=4 / vbv_maxrate=62500 / vbv_bufsize=78125 / nal_hrd=none / filler=0 / ip_ratio=1.40 / aq=1:1.00
    Default                     : Yes
    Forced                      : No
    Color range                 : Limited
    Color primaries             : BT.709
    Transfer characteristics    : BT.709
    Matrix coefficients         : BT.709
    Statistics Tags Issue       : mkvmerge v10.0.0 ('To Drown In You') 64bit 2017-10-19 03:57:06 / mkvmerge v10.0.0 ('To Drown In You') 64bit 2017-10-19 03:57:06 / UTC 2017-10-19T02:04:13Z
    FromStats_BitRate           : 3446000
    FromStats_Duration          : 01:34:56.775000000
    FromStats_FrameCount        : 136586
    FromStats_StreamSize        : 2453886266

    Audio #1
    ID                          : 2
    Format                      : AC-3
    Format/Info                 : Audio Coding 3
    Format settings, Endianness : Big
    Codec ID                    : A_AC3
    Duration                    : 1 h 34 min
    Bit rate mode               : Constant
    Bit rate                    : 192 kb/s
    Channel(s)                  : 2 channels
    Channel positions           : Front: L R
    Sampling rate               : 48.0 kHz
    Frame rate                  : 31.250 FPS (1536 SPF)
    Bit depth                   : 16 bits
    Compression mode            : Lossy
    Delay relative to video     : 15 ms
    Stream size                 : 130 MiB (5%)
    Language                    : Spanish
    Service kind                : Complete Main
    Default                     : Yes
    Forced                      : No
    Statistics Tags Issue       : mkvmerge v10.0.0 ('To Drown In You') 64bit 2017-10-19 03:57:06 / mkvmerge v10.0.0 ('To Drown In You') 64bit 2017-10-19 03:57:06 / UTC 2017-10-19T02:04:13Z
    FromStats_BitRate           : 192000
    FromStats_Duration          : 01:34:55.392000000
    FromStats_FrameCount        : 177981
    FromStats_StreamSize        : 136689408

    Audio #2
    ID                          : 3
    Format                      : AC-3
    Format/Info                 : Audio Coding 3
    Format settings, Endianness : Big
    Codec ID                    : A_AC3
    Duration                    : 1 h 34 min
    Bit rate mode               : Constant
    Bit rate                    : 384 kb/s
    Channel(s)                  : 6 channels
    Channel positions           : Front: L C R, Side: L R, LFE
    Sampling rate               : 48.0 kHz
    Frame rate                  : 31.250 FPS (1536 SPF)
    Bit depth                   : 16 bits
    Compression mode            : Lossy
    Delay relative to video     : -5 ms
    Stream size                 : 261 MiB (10%)
    Title                       : Surround
    Language                    : English
    Service kind                : Complete Main
    Default                     : No
    Forced                      : No
    Statistics Tags Issue       : mkvmerge v10.0.0 ('To Drown In You') 64bit 2017-10-19 03:57:06 / mkvmerge v10.0.0 ('To Drown In You') 64bit 2017-10-19 03:57:06 / UTC 2017-10-19T02:04:13Z
    FromStats_BitRate           : 384000
    FromStats_Duration          : 01:34:56.736000000
    FromStats_FrameCount        : 178023
    FromStats_StreamSize        : 273443328

    Text
    ID                          : 4
    Format                      : UTF-8
    Codec ID                    : S_TEXT/UTF8
    Codec ID/Info               : UTF-8 Plain Text
    Language                    : Spanish
    Default                     : Yes
    Forced                      : No
    Statistics Tags Issue       : mkvmerge v10.0.0 ('To Drown In You') 64bit 2017-10-19 03:57:06 / mkvmerge v10.0.0 ('To Drown In You') 64bit 2017-10-19 03:57:06 / UTC 2017-10-19T02:04:13Z
    FromStats_BitRate           : 34
    FromStats_Duration          : 01:29:52.059000000
    FromStats_FrameCount        : 804
    FromStats_StreamSize        : 23272

    Menu
    00:00:00.000                : :Chapter 1
    00:10:05.814                : :Chapter 2
    00:18:17.346                : :Chapter 3
    00:31:20.545                : :Chapter 4
    00:42:57.950                : :Chapter 5
    00:56:26.133                : :Chapter 6
    01:08:56.966                : :Chapter 7
    01:24:34.570                : :Chapter 8
    01:34:54.606                : :Chapter 9

  • Peso: 2.67 GB

Sinopsis

Una madre no se detendrá ante nada para intentar recuperar a su hijo cuando este es secuestrado delante de ella en un parque de atracciones.

Ficha técnica

Video trailer de la película

Enlaces de descarga

Rip de Bluray

Descargar Secuestrado (2017) 1080p Latino




Aportes de DPeliculasHDmega la pass es:dpeliculashdmega.org Aportes de CinemaniaHD la pass es:cinemaniahdd.com
Guardado en : Drama , Suspense

Películas relacionadas

  • Bohemian Rhapsody (2018) [AMZ] WEB-DL 1080p Latino

    2018
    Bohemian Rhapsody (2018) [AMZ] WEB-DL 1080p Latino

    0.0 2h 14m 2018

    Bohemian Rhapsody es una rotunda y sonora celebración de Queen, de su música y de su extraordinario...

    Director: Jack Ravenscroft

    Género: Drama

    Actores: Tom Hollander

  • Bohemian Rhapsody (2018) WEB-DL 1080p Latino

    2018
    Bohemian Rhapsody (2018) WEB-DL 1080p Latino

    5.0 2h 14m 2018

    Bohemian Rhapsody es una rotunda y sonora celebración de Queen, de su música y de su extraordinario...

    Director: Jack Ravenscroft

    Género: Drama

    Actores: Tom Hollander

  • La buena esposa (2018) 1080p Latino

    2018
    La buena esposa (2018) 1080p Latino

    0.0 1h 40m 2018

    Descargar La buena esposa (2018) 1080p Latino, Mega, Google Drive, Torrent. Joan Castleman (Glenn Close)...

    Director: Björn Runge

    Género: Drama

    Actores: Twinnie Lee Moore

  • The Sisters Brothers (2018) 1080p Subtitulado

    2018
    The Sisters Brothers (2018) 1080p Subtitulado

    4.0 2h 2m 2018

    Descargar The Sisters Brothers (2018) 1080p Subtitulado, Mega, Google Drive, Torrent. Narra la historia...

    Director: Jean-Baptiste Pouilloux

    Género: Comedia

    Actores: Zac Abbott

Comentarios 4
  • Marco - 24 octubre, 2017

    Compa la pelicula se ve achicada

    • dpelis - 24 octubre, 2017

      yo al vi y esta bien.

      • jk2018 - 17 noviembre, 2017

        para cuando aproximada la tendran en gris..gracias..

        • dpelis - 18 noviembre, 2017

          trataremos de hacerlo este mes. saludos