×

¿Problemas para descargar con Mozilla, EDGE? Deshabilita la opción "Abrir vinculos en una pestaña nueva" tal como lo muestra ésta imagen.

Secrets of the Saqqara Tomb (2020) NF WEB-DL 1080p Latino

335 vistas

Información de Secrets of the Saqqara Tomb (2020) NF WEB-DL 1080p Latino

Datos de la película

  • Calidad: WEBDL
  • Audio: Español Latino AC3 5.1 Netflix - Ingles AC3 5.1 Netflix
  • Subtitulos: Español Latino SRT- FORZADOS SRT
  • Resolución: 1920x1080
  • Formato: MKV
  • Codec: H.264
  • Encoder: cinemaniahdd
  • Mediainfo: Clic para Mostrar Datos Ver
  • Secrets of the Saqqara Tomb (2020) NF WEB-DL 1080p Latino [CNMNHDD].mkv
    Format                      : Matroska
    Format version              : Version 4
    File size                   : 3.91 GiB
    Duration                    : 1 h 54 min
    Overall bit rate mode       : Variable
    Overall bit rate            : 4 907 kb/s
    Movie name                  : Secrets of the Saqqara Tomb (2020) - CinemaniaHDD.Net
    Encoded date                : UTC 2020-10-28 22:10:51
    Writing application         : mkvmerge v51.0.0 ('I Wish') 64-bit
    Writing library             : libebml v1.4.0 + libmatroska v1.6.2

    Video
    ID                          : 1
    Format                      : AVC
    Format/Info                 : Advanced Video Codec
    Format profile              : Main@L4
    Format settings             : CABAC / 3 Ref Frames
    Format settings, CABAC      : Yes
    Format settings, Reference  : 3 frames
    Codec ID                    : V_MPEG4/ISO/AVC
    Duration                    : 1 h 54 min
    Bit rate mode               : Variable
    Bit rate                    : 4 220 kb/s
    Maximum bit rate            : 6 330 kb/s
    Width                       : 1 920 pixels
    Height                      : 1 080 pixels
    Display aspect ratio        : 16:9
    Frame rate mode             : Constant
    Frame rate                  : 25.000 FPS
    Color space                 : YUV
    Chroma subsampling          : 4:2:0
    Bit depth                   : 8 bits
    Scan type                   : Progressive
    Bits/(Pixel*Frame)          : 0.081
    Stream size                 : 3.30 GiB (84%)
    Title                       : CinemaniaHDD
    Writing library             : x264 core 148 r2722 1b0121b
    Encoding settings           : cabac=1 / ref=3 / deblock=1:0:0 / analyse=0x1:0x111 / me=umh / subme=10 / psy=1 / psy_rd=1.00:0.00 / mixed_ref=1 / me_range=24 / chroma_me=1 / trellis=2 / 8x8dct=0 / cqm=0 / deadzone=21,11 / fast_pskip=1 / chroma_qp_offset=-2 / threads=8 / lookahead_threads=1 / sliced_threads=0 / nr=0 / decimate=1 / interlaced=0 / bluray_compat=0 / stitchable=1 / constrained_intra=0 / bframes=2 / b_pyramid=0 / b_adapt=2 / b_bias=0 / direct=3 / weightb=1 / open_gop=0 / weightp=2 / keyint=250 / keyint_min=25 / scenecut=0 / intra_refresh=0 / rc_lookahead=50 / rc=2pass / mbtree=1 / bitrate=4220 / ratetol=1.0 / qcomp=0.50 / qpmin=6 / qpmax=51 / qpstep=4 / cplxblur=20.0 / qblur=0.5 / vbv_maxrate=6330 / vbv_bufsize=8440 / nal_hrd=vbr / filler=0 / ip_ratio=1.40 / aq=1:1.00
    Default                     : Yes
    Forced                      : No

    Audio #1
    ID                          : 2
    Format                      : AC-3
    Format/Info                 : Audio Coding 3
    Commercial name             : Dolby Digital
    Codec ID                    : A_AC3
    Duration                    : 1 h 54 min
    Bit rate mode               : Constant
    Bit rate                    : 384 kb/s
    Channel(s)                  : 6 channels
    Channel layout              : L R C LFE Ls Rs
    Sampling rate               : 48.0 kHz
    Frame rate                  : 31.250 FPS (1536 SPF)
    Compression mode            : Lossy
    Stream size                 : 314 MiB (8%)
    Title                       : Español latino [CinemaniaHDD]
    Language                    : Spanish
    Service kind                : Complete Main
    Default                     : Yes
    Forced                      : No

    Audio #2
    ID                          : 3
    Format                      : AC-3
    Format/Info                 : Audio Coding 3
    Commercial name             : Dolby Digital
    Codec ID                    : A_AC3
    Duration                    : 1 h 54 min
    Bit rate mode               : Constant
    Bit rate                    : 384 kb/s
    Channel(s)                  : 6 channels
    Channel layout              : L R C LFE Ls Rs
    Sampling rate               : 48.0 kHz
    Frame rate                  : 31.250 FPS (1536 SPF)
    Compression mode            : Lossy
    Stream size                 : 314 MiB (8%)
    Title                       : Inglés [CinemaniaHDD]
    Language                    : English
    Service kind                : Complete Main
    Default                     : No
    Forced                      : No

    Text #1
    ID                          : 4
    Format                      : UTF-8
    Codec ID                    : S_TEXT/UTF8
    Codec ID/Info               : UTF-8 Plain Text
    Duration                    : 1 h 51 min
    Bit rate                    : 3 b/s
    Count of elements           : 74
    Stream size                 : 3.11 KiB (0%)
    Title                       : Forzados [CinemaniaHDD]
    Language                    : Spanish
    Default                     : Yes
    Forced                      : Yes

    Text #2
    ID                          : 5
    Format                      : UTF-8
    Codec ID                    : S_TEXT/UTF8
    Codec ID/Info               : UTF-8 Plain Text
    Duration                    : 1 h 51 min
    Bit rate                    : 57 b/s
    Count of elements           : 1313
    Stream size                 : 46.8 KiB (0%)
    Title                       : Español latino [CinemaniaHDD]
    Language                    : Spanish
    Default                     : No
    Forced                      : No

    Text #3
    ID                          : 6
    Format                      : UTF-8
    Codec ID                    : S_TEXT/UTF8
    Codec ID/Info               : UTF-8 Plain Text
    Duration                    : 1 h 51 min
    Bit rate                    : 70 b/s
    Count of elements           : 1584
    Stream size                 : 57.7 KiB (0%)
    Title                       : Inglés [CinemaniaHDD]
    Language                    : English
    Default                     : No
    Forced                      : No

  • Peso: 3.91 GiB

Sinopsis

Este documental sigue a un equipo de arqueólogos locales que excava pasadizos, pozos y tumbas nunca antes explorados, reuniendo los secretos del hallazgo más significativo de Egipto en casi 50 años en Saqqara.

Ficha técnica

Video trailer de la película

Enlaces de descarga

Rip de Bluray

Descargar Secrets of the Saqqara Tomb (2020) NF WEB-DL 1080p Latino




Aportes de DPeliculasHDmega la pass es:dpeliculashdmega.org Aportes de CinemaniaHD la pass es:cinemaniahdd.com
Guardado en : Documental , Netflix

Películas relacionadas

  • Ustedes (2023) NF WEB-DL 1080p Latino

    Ustedes (2023) NF WEB-DL 1080p Latino

    2023
    Ustedes (2023) NF WEB-DL 1080p Latino

    1h 58m 2023

    Descargar Ustedes (2023) NF WEB-DL 1080p Latino. Dos mileniales de Los Ángeles de orígenes dispares...

    Director: Kenya Barris

    Género: Comedia

    Actores: Yung Miami

  • Narvik (2022) NF WEB-DL 1080p Latino

    Narvik (2022) NF WEB-DL 1080p Latino

    2022
    Narvik (2022) NF WEB-DL 1080p Latino

    1h 48m 2022

    Descargar Narvik (2022) NF WEB-DL 1080p Latino. Abril de 1940. Los ojos del mundo están puestos en Narvik,...

    Director: Suzanne Svae-Johansen

    Género: Acción

    Actores: Torfinn Nag

  • JUNG_E (2023) NF WEB-DL 1080p Latino

    JUNG_E (2023) NF WEB-DL 1080p Latino

    2023
    JUNG_E (2023) NF WEB-DL 1080p Latino

    1h 38m 2023

    Descargar JUNG_E (2023) NF WEB-DL 1080p Latino. Siglo XXII. En un planeta Tierra inhabitable, el resultado...

    Director: Yeon Sang-Ho

    Género: Acción

    Actores: Ryu Kyung-soo

  • Perro perdido (2023) NF WEB-DL 1080p Latino

    Perro perdido (2023) NF WEB-DL 1080p Latino

    2023
    Perro perdido (2023) NF WEB-DL 1080p Latino

    1h 35m 2023

    Descargar Perro perdido (2023) NF WEB-DL 1080p Latino. Cuando su querido perro desaparece, un chico y...

    Director: Stephen Herek

    Género: Aventura

    Actores: Rob Lowe

descargar Secrets of the Saqqara Tomb (2020) NF WEB-DL 1080p Latino WEBDL 1080p gratis, Secrets of the Saqqara Tomb (2020) NF WEB-DL 1080p Latino WEBDL mega 1 link, Secrets of the Saqqara Tomb (2020) NF WEB-DL 1080p Latino WEBDL pelicula completa, descargar Secrets of the Saqqara Tomb (2020) NF WEB-DL 1080p Latino WEBDL gratis en mega.

Secrets of the Saqqara Tomb (2020) NF WEB-DL 1080p Latino pelicula full hd, Secrets of the Saqqara Tomb (2020) NF WEB-DL 1080p Latino mega latino, Secrets of the Saqqara Tomb (2020) NF WEB-DL 1080p Latino 4k latino, Secrets of the Saqqara Tomb (2020) NF WEB-DL 1080p Latino pelicula completa, Secrets of the Saqqara Tomb (2020) NF WEB-DL 1080p Latino descargar gratis, descargar Secrets of the Saqqara Tomb (2020) NF WEB-DL 1080p Latino pelicula latino, Secrets of the Saqqara Tomb (2020) NF WEB-DL 1080p Latino 1 link mega, Secrets of the Saqqara Tomb (2020) NF WEB-DL 1080p Latino 1 link google drive, Secrets of the Saqqara Tomb (2020) NF WEB-DL 1080p Latino hd 1080p latino.
Comentarios 0