×

¿Problemas para descargar con Mozilla, EDGE? Deshabilita la opción "Abrir vinculos en una pestaña nueva" tal como lo muestra ésta imagen.

Los secretos de Sulphur Springs (2021) Temporada 01 AMZN Web-DL 1080p Latino

188 vistas

Información de Los secretos de Sulphur Springs (2021) Temporada 01 AMZN Web-DL 1080p Latino

Datos de la película

  • Calidad: WEBDL
  • Audio: Se especifica abajo de la Sinopsis
  • Subtitulos: Español Latino SRT- FORZADOS SRT
  • Resolución: 1920x1080p
  • Formato: MKV
  • Codec: H.264
  • Encoder: CinemaniaHD
  • Mediainfo: Clic para Mostrar Datos Ver
  • Secretos en Sulphur Springs S01E01 AMZN Web-DL 1080p Latino-CMHDD.mkv
    Format                      : Matroska
    Format version              : Version 4
    File size                   : 1.76 GiB
    Duration                    : 25 min 39 s
    Overall bit rate            : 9 808 kb/s
    Movie name                  : CinemaniaHDD.Net
    Encoded date                : UTC 2021-06-20 21:33:39
    Writing application         : mkvmerge v56.1.0 ('My Friend') 64-bit
    Writing library             : libebml v1.4.2 + libmatroska v1.6.4
    Attachments                 : CINEMANIAHD.png

    Video
    ID                          : 1
    Format                      : AVC
    Format/Info                 : Advanced Video Codec
    Format profile              : High@L4
    Format settings             : CABAC / 4 Ref Frames
    Format settings, CABAC      : Yes
    Format settings, Reference  : 4 frames
    Codec ID                    : V_MPEG4/ISO/AVC
    Duration                    : 25 min 39 s
    Bit rate mode               : Constant
    Bit rate                    : 8 910 kb/s
    Nominal bit rate            : 10 000 kb/s
    Width                       : 1 920 pixels
    Height                      : 1 080 pixels
    Display aspect ratio        : 16:9
    Frame rate mode             : Constant
    Frame rate                  : 23.976 (24000/1001) FPS
    Color space                 : YUV
    Chroma subsampling          : 4:2:0
    Bit depth                   : 8 bits
    Scan type                   : Progressive
    Bits/(Pixel*Frame)          : 0.179
    Stream size                 : 1.60 GiB (91%)
    Title                       : WEB HD1080p [CinemaniaHDD]
    Default                     : Yes
    Forced                      : No
    Color range                 : Limited
    Color primaries             : BT.709
    Transfer characteristics    : BT.709
    Matrix coefficients         : BT.709

    Audio #1
    ID                          : 2
    Format                      : AC-3
    Format/Info                 : Audio Coding 3
    Commercial name             : Dolby Digital
    Codec ID                    : A_AC3
    Duration                    : 25 min 39 s
    Bit rate mode               : Constant
    Bit rate                    : 256 kb/s
    Channel(s)                  : 2 channels
    Channel layout              : L R
    Sampling rate               : 48.0 kHz
    Frame rate                  : 31.250 FPS (1536 SPF)
    Compression mode            : Lossy
    Stream size                 : 47.0 MiB (3%)
    Title                       : Español Latino [CinemaniaHDD]
    Language                    : Spanish
    Service kind                : Complete Main
    Default                     : Yes
    Forced                      : No

    Audio #2
    ID                          : 3
    Format                      : E-AC-3
    Format/Info                 : Enhanced AC-3
    Commercial name             : Dolby Digital Plus
    Codec ID                    : A_EAC3
    Duration                    : 25 min 39 s
    Bit rate mode               : Constant
    Bit rate                    : 640 kb/s
    Channel(s)                  : 6 channels
    Channel layout              : L R C LFE Ls Rs
    Sampling rate               : 48.0 kHz
    Frame rate                  : 31.250 FPS (1536 SPF)
    Compression mode            : Lossy
    Stream size                 : 117 MiB (7%)
    Title                       : Ingles [CinemaniaHDD]
    Language                    : English
    Service kind                : Complete Main
    Default                     : No
    Forced                      : No

    Text #1
    ID                          : 4
    Format                      : UTF-8
    Codec ID                    : S_TEXT/UTF8
    Codec ID/Info               : UTF-8 Plain Text
    Duration                    : 18 min 48 s
    Bit rate                    : 0 b/s
    Count of elements           : 3
    Stream size                 : 114 Bytes (0%)
    Title                       : Forzados-SRT [CinemaniaHDD]
    Language                    : Spanish
    Default                     : Yes
    Forced                      : No

    Text #2
    ID                          : 5
    Format                      : UTF-8
    Codec ID                    : S_TEXT/UTF8
    Codec ID/Info               : UTF-8 Plain Text
    Duration                    : 25 min 8 s
    Bit rate                    : 47 b/s
    Count of elements           : 295
    Stream size                 : 8.66 KiB (0%)
    Title                       : Español-SRT [CinemaniaHDD]
    Language                    : Spanish
    Default                     : No
    Forced                      : No

  • Peso: 1.50 - 1.80 GiB Aprox. C/U | 18.6 GiB Total.

Sinopsis

Descargar Los secretos de Sulphur Springs (2021) Temporada 01 AMZN Web-DL 1080p Latino. Griffin Campbell, de 12 años, y su familia se trasladan a la pequeña ciudad de Sulphur Springs y se hacen con la propiedad de un hotel abandonado del que se rumorea que está embrujado por el fantasma de una niña que desapareció hace décadas. Griffin se hace amigo de Harper, una compañera de clase de ojos brillantes y obsesionada con el misterio, y juntos descubren un portal secreto que les permite viajar en el tiempo. En el pasado, intentarán descubrir la clave para resolver este misterio sin resolver, un misterio que afecta a todos sus allegados.

Audio Español Latino AC3 2.0 D+ – Ingles EAC3 5.1 AMZN

Ficha técnica

Video trailer de la película

Enlaces de descarga

Rip de Bluray

Descargar Los secretos de Sulphur Springs (2021) Temporada 01 AMZN Web-DL 1080p Latino




Aportes de DPeliculasHDmega la pass es:dpeliculashdmega.org Aportes de CinemaniaHD la pass es:cinemaniahdd.com
Guardado en : Familia , Aventura , Fantasía , Misterio , Series

Películas relacionadas

descargar Los secretos de Sulphur Springs (2021) Temporada 01 AMZN Web-DL 1080p Latino WEBDL 1080p gratis, Los secretos de Sulphur Springs (2021) Temporada 01 AMZN Web-DL 1080p Latino WEBDL mega 1 link, Los secretos de Sulphur Springs (2021) Temporada 01 AMZN Web-DL 1080p Latino WEBDL serie completa, descargar Los secretos de Sulphur Springs (2021) Temporada 01 AMZN Web-DL 1080p Latino WEBDL gratis en mega.

Los secretos de Sulphur Springs (2021) Temporada 01 AMZN Web-DL 1080p Latino pelicula full hd, Los secretos de Sulphur Springs (2021) Temporada 01 AMZN Web-DL 1080p Latino mega latino, Los secretos de Sulphur Springs (2021) Temporada 01 AMZN Web-DL 1080p Latino 4k latino, Los secretos de Sulphur Springs (2021) Temporada 01 AMZN Web-DL 1080p Latino pelicula completa, Los secretos de Sulphur Springs (2021) Temporada 01 AMZN Web-DL 1080p Latino descargar gratis, descargar Los secretos de Sulphur Springs (2021) Temporada 01 AMZN Web-DL 1080p Latino pelicula latino, Los secretos de Sulphur Springs (2021) Temporada 01 AMZN Web-DL 1080p Latino 1 link mega, Los secretos de Sulphur Springs (2021) Temporada 01 AMZN Web-DL 1080p Latino 1 link google drive, Los secretos de Sulphur Springs (2021) Temporada 01 AMZN Web-DL 1080p Latino hd 1080p latino.
Comentarios 0