×

¿Problemas para descargar con Mozilla, EDGE? Deshabilita la opción "Abrir vinculos en una pestaña nueva" tal como lo muestra ésta imagen.

Secretos de estado (2019) REMUX 1080p Latino

447 vistas

Información de Secretos de estado (2019) REMUX 1080p Latino

Datos de la película

  • Calidad: Full 1080p
  • Audio: Se especifica abajo de la Sinopsis
  • Subtitulos: Español Latino SRT- FORZADOS SRT
  • Resolución: 1920x1080p
  • Formato: MKV
  • Codec: H.264
  • Encoder: CinefiloCool
  • Mediainfo: Clic para Mostrar Datos Ver
  • Secretos de Estado (2019) REMUX 1080p Latino-CMHDD.mkv
    Format                      : Matroska
    Format version              : Version 4
    File size                   : 27.8 GiB
    Duration                    : 1 h 51 min
    Overall bit rate mode       : Variable
    Overall bit rate            : 35.6 Mb/s
    Movie name                  : Official Secrets (2019) CinemaniaHDD.Net
    Encoded date                : UTC 2020-03-13 00:00:29
    Writing application         : mkvmerge v42.0.0 ('Overtime') 64-bit
    Writing library             : libebml v1.3.10 + libmatroska v1.5.2
    Attachments                 : CINEMANIAHD.png

    Video
    ID                          : 1
    Format                      : AVC
    Format/Info                 : Advanced Video Codec
    Format profile              : High@L4.1
    Format settings             : CABAC / 3 Ref Frames
    Format settings, CABAC      : Yes
    Format settings, ReFrames   : 3 frames
    Codec ID                    : V_MPEG4/ISO/AVC
    Duration                    : 1 h 51 min
    Bit rate mode               : Variable
    Bit rate                    : 33.0 Mb/s
    Maximum bit rate            : 36.0 Mb/s
    Width                       : 1 920 pixels
    Height                      : 1 080 pixels
    Display aspect ratio        : 16:9
    Frame rate mode             : Constant
    Frame rate                  : 23.976 (24000/1001) FPS
    Color space                 : YUV
    Chroma subsampling          : 4:2:0
    Bit depth                   : 8 bits
    Scan type                   : Progressive
    Bits/(Pixel*Frame)          : 0.664
    Stream size                 : 24.8 GiB (89%)
    Title                       : Full HD1080p [REMUX]
    Writing library             : x264 core 146 r2538 121396c
    Encoding settings           : cabac=1 / ref=4 / deblock=1:-1:-1 / analyse=0x3:0x133 / me=umh / subme=10 / psy=1 / psy_rd=1.00:0.15 / mixed_ref=1 / me_range=24 / chroma_me=1 / trellis=2 / 8x8dct=1 / cqm=0 / deadzone=21,11 / fast_pskip=1 / chroma_qp_offset=-3 / threads=48 / lookahead_threads=4 / sliced_threads=0 / slices=4 / nr=0 / decimate=1 / interlaced=0 / bluray_compat=1 / constrained_intra=0 / bframes=3 / b_pyramid=1 / b_adapt=2 / b_bias=0 / direct=3 / weightb=1 / open_gop=1 / weightp=1 / keyint=24 / keyint_min=1 / scenecut=40 / intra_refresh=0 / rc_lookahead=24 / rc=2pass / mbtree=1 / bitrate=33000 / ratetol=1.0 / qcomp=0.60 / qpmin=0 / qpmax=69 / qpstep=4 / cplxblur=20.0 / qblur=0.5 / vbv_maxrate=36000 / vbv_bufsize=30000 / nal_hrd=vbr / filler=0 / ip_ratio=1.40 / aq=1:1.00
    Default                     : Yes
    Forced                      : Yes
    Color range                 : Limited
    Color primaries             : BT.709
    Transfer characteristics    : BT.709
    Matrix coefficients         : BT.709

    Audio #1
    ID                          : 2
    Format                      : AC-3
    Format/Info                 : Audio Coding 3
    Commercial name             : Dolby Digital
    Codec ID                    : A_AC3
    Duration                    : 1 h 51 min
    Bit rate mode               : Constant
    Bit rate                    : 640 kb/s
    Channel(s)                  : 6 channels
    Channel layout              : L R C LFE Ls Rs
    Sampling rate               : 48.0 kHz
    Frame rate                  : 31.250 FPS (1536 SPF)
    Bit depth                   : 16 bits
    Compression mode            : Lossy
    Stream size                 : 512 MiB (2%)
    Title                       : AC3_5.1_Web_Esp
    Language                    : Spanish
    Service kind                : Complete Main
    Default                     : Yes
    Forced                      : Yes

    Audio #2
    ID                          : 3
    Format                      : DTS XLL
    Format/Info                 : Digital Theater Systems
    Commercial name             : DTS-HD Master Audio
    Codec ID                    : A_DTS
    Duration                    : 1 h 51 min
    Bit rate mode               : Variable
    Bit rate                    : 3 251 kb/s
    Channel(s)                  : 6 channels
    Channel layout              : C L R Ls Rs LFE
    Sampling rate               : 48.0 kHz
    Frame rate                  : 93.750 FPS (512 SPF)
    Bit depth                   : 24 bits
    Compression mode            : Lossless
    Stream size                 : 2.54 GiB (9%)
    Title                       : DTS-HD_5.1_Bluray_Eng
    Language                    : English
    Default                     : No
    Forced                      : No

    Text #1
    ID                          : 4
    Format                      : UTF-8
    Codec ID                    : S_TEXT/UTF8
    Codec ID/Info               : UTF-8 Plain Text
    Duration                    : 1 h 42 min
    Bit rate                    : 1 b/s
    Count of elements           : 23
    Stream size                 : 857 Bytes (0%)
    Title                       : Sub_Forzados
    Language                    : Spanish
    Default                     : Yes
    Forced                      : Yes

    Text #2
    ID                          : 5
    Format                      : UTF-8
    Codec ID                    : S_TEXT/UTF8
    Codec ID/Info               : UTF-8 Plain Text
    Duration                    : 1 h 46 min
    Bit rate                    : 94 b/s
    Count of elements           : 1901
    Stream size                 : 73.3 KiB (0%)
    Title                       : Sub_Esp
    Language                    : Spanish
    Default                     : No
    Forced                      : No

    Text #3
    ID                          : 6
    Format                      : UTF-8
    Codec ID                    : S_TEXT/UTF8
    Codec ID/Info               : UTF-8 Plain Text
    Duration                    : 1 h 44 min
    Bit rate                    : 83 b/s
    Count of elements           : 1962
    Stream size                 : 64.0 KiB (0%)
    Title                       : Sub_Eng
    Language                    : English
    Default                     : No
    Forced                      : No

    Menu
    00:00:00.000                : en:Chapter 1
    00:12:07.101                : en:Chapter 2
    00:19:33.130                : en:Chapter 3
    00:29:18.131                : en:Chapter 4
    00:36:51.501                : en:Chapter 5
    00:43:33.444                : en:Chapter 6
    00:51:39.930                : en:Chapter 7
    01:02:28.662                : en:Chapter 8
    01:15:30.443                : en:Chapter 9
    01:23:11.987                : en:Chapter 10
    01:34:02.554                : en:Chapter 11
    01:45:46.298                : en:Chapter 12

  • Peso: 27.8 GiB

Sinopsis

Descargar Secretos de estado (2019) REMUX 1080p Latino. 2003, mientras los politicos británicos y estadounidenses maniobran para invadir Iraq, la traductora del GCHQ (Cuartel General de Comunicaciones del Gobierno Británico) Katharine Gun (Keira Knightley) filtra un e-mail clasificado que urge a espiar a miembros del Consejo de Seguridad de las Naciones Unidas para forzar una resolución para ir a la Guerra. Acusada de romper el Acta de Secretos Oficiales y enfrentándose a prisión, Katharine y sus abogados están determinados a defender sus acciones. Con su vida, su libertad y su matrimonio amenazados, Katharine deberá luchar por lo que cree.

Audio Español Latino AC3 5.1 Web-DL – Ingles DTS-HD 5.1 Bluray

Ficha técnica

Video trailer de la película

Enlaces de descarga

Rip de Bluray

Descargar Secretos de estado (2019) REMUX 1080p Latino




Aportes de DPeliculasHDmega la pass es:dpeliculashdmega.org Aportes de CinemaniaHD la pass es:cinemaniahdd.com
Guardado en : Bélica , Crimen , Drama , Historia , Remux , Romance , Suspenso

Películas relacionadas

  • Wire Room (2022) HD 1080p Latino

    Wire Room (2022) HD 1080p Latino

    2022
    Wire Room (2022) HD 1080p Latino

    1h 37m 2022

    Descargar Wire Room (2022) HD 1080p Latino. Mientras está de servicio en la sala de cables, un agente...

    Director: Matt Eskandari

    Género: Acción

    Actores: Texas Battle

  • Wire Room (2022) PLACEBO Full HD 1080p Latino

    Wire Room (2022) PLACEBO Full HD 1080p Latino

    2022
    Wire Room (2022) PLACEBO Full HD 1080p Latino

    1h 37m 2022

    Descargar Wire Room (2022) PLACEBO Full HD 1080p Latino. Mientras está de servicio en la sala de cables,...

    Director: Matt Eskandari

    Género: Acción

    Actores: Texas Battle

  • Wire Room (2022) REMUX 1080p Latino

    Wire Room (2022) REMUX 1080p Latino

    2022
    Wire Room (2022) REMUX 1080p Latino

    1h 37m 2022

    Descargar Wire Room (2022) REMUX 1080p Latino. Mientras está de servicio en la sala de cables, un agente...

    Director: Matt Eskandari

    Género: Acción

    Actores: Texas Battle

  • Alarido (2022) HD 1080p Latino

    Alarido (2022) HD 1080p Latino

    2022
    Alarido (2022) HD 1080p Latino

    1h 29m 2022

    Descargar Alarido (2022) HD 1080p Latino. Una joven madre soltera es cautiva junto con sus dos hijos...

    Director: D.J. Caruso

    Género: HD 1080p

    Actores: Vincent Gallo

  • Alarido (2022) PLACEBO Full HD 1080p Latino

    Alarido (2022) PLACEBO Full HD 1080p Latino

    2022
    Alarido (2022) PLACEBO Full HD 1080p Latino

    1h 29m 2022

    Descargar Alarido (2022) PLACEBO Full HD 1080p Latino. Una joven madre soltera es cautiva junto con sus...

    Director: D.J. Caruso

    Género: FULL 1080p Plateadas

    Actores: Vincent Gallo

descargar Secretos de estado (2019) REMUX 1080p Latino Full 1080p 1080p gratis, Secretos de estado (2019) REMUX 1080p Latino Full 1080p mega 1 link, Secretos de estado (2019) REMUX 1080p Latino Full 1080p pelicula completa, descargar Secretos de estado (2019) REMUX 1080p Latino Full 1080p gratis en mega.

Secretos de estado (2019) REMUX 1080p Latino pelicula full hd, Secretos de estado (2019) REMUX 1080p Latino mega latino, Secretos de estado (2019) REMUX 1080p Latino 4k latino, Secretos de estado (2019) REMUX 1080p Latino pelicula completa, Secretos de estado (2019) REMUX 1080p Latino descargar gratis, descargar Secretos de estado (2019) REMUX 1080p Latino pelicula latino, Secretos de estado (2019) REMUX 1080p Latino 1 link mega, Secretos de estado (2019) REMUX 1080p Latino 1 link google drive, Secretos de estado (2019) REMUX 1080p Latino hd 1080p latino.
Comentarios 0