×

¿Problemas para descargar con Mozilla, EDGE? Deshabilita la opción "Abrir vinculos en una pestaña nueva" tal como lo muestra ésta imagen.

Secreto Oscuro (2020) REMUX 1080p Latino

87 vistas

Información de Secreto Oscuro (2020) REMUX 1080p Latino

Datos de la película

  • Calidad: Full 1080p
  • Audio: Español Latino AC3 2.0 WEB-DL - Ingles DTS 5.1 BLURAY
  • Subtitulos: Español Latino SRT- FORZADOS SRT
  • Resolución: 1920x1080p
  • Formato: MKV
  • Codec: H.264
  • Encoder: Melkor
  • Mediainfo: Clic para Mostrar Datos Ver
  • Secreto Oscuro (2020) REMUX 1080p Latino.mkv
    Format                      : Matroska
    Format version              : Version 4
    File size                   : 15.4 GiB
    Duration                    : 1 h 27 min
    Overall bit rate mode       : Variable
    Overall bit rate            : 25.0 Mb/s
    Movie name                  : What Lies Below (2020) CinemaniaHDD.Net
    Encoded date                : UTC 2021-10-10 22:47:49
    Writing application         : mkvmerge v56.1.0 ('My Friend') 64-bit
    Writing library             : libebml v1.4.2 + libmatroska v1.6.4

    Video
    ID                          : 1
    Format                      : AVC
    Format/Info                 : Advanced Video Codec
    Format profile              : High@L4.1
    Format settings             : CABAC / 4 Ref Frames
    Format settings, CABAC      : Yes
    Format settings, Reference  : 4 frames
    Codec ID                    : V_MPEG4/ISO/AVC
    Duration                    : 1 h 27 min
    Bit rate mode               : Constant
    Bit rate                    : 22.0 Mb/s
    Width                       : 1 920 pixels
    Height                      : 1 080 pixels
    Display aspect ratio        : 16:9
    Frame rate mode             : Constant
    Frame rate                  : 23.976 (24000/1001) FPS
    Standard                    : NTSC
    Color space                 : YUV
    Chroma subsampling          : 4:2:0
    Bit depth                   : 8 bits
    Scan type                   : Progressive
    Bits/(Pixel*Frame)          : 0.443
    Stream size                 : 13.0 GiB (85%)
    Title                       : REMUX HD1080p [CinemaniaHDD]
    Language                    : English
    Default                     : Yes
    Forced                      : Yes
    Color range                 : Limited
    Color primaries             : BT.709
    Transfer characteristics    : BT.709
    Matrix coefficients         : BT.709

    Audio #1
    ID                          : 2
    Format                      : AC-3
    Format/Info                 : Audio Coding 3
    Commercial name             : Dolby Digital
    Codec ID                    : A_AC3
    Duration                    : 1 h 27 min
    Bit rate mode               : Constant
    Bit rate                    : 256 kb/s
    Channel(s)                  : 2 channels
    Channel layout              : L R
    Sampling rate               : 48.0 kHz
    Frame rate                  : 31.250 FPS (1536 SPF)
    Compression mode            : Lossy
    Stream size                 : 161 MiB (1%)
    Title                       : Español Latino [CinemaniaHDD]
    Language                    : Spanish
    Service kind                : Complete Main
    Default                     : Yes
    Forced                      : Yes

    Audio #2
    ID                          : 3
    Format                      : DTS XLL
    Format/Info                 : Digital Theater Systems
    Commercial name             : DTS-HD Master Audio
    Codec ID                    : A_DTS
    Duration                    : 1 h 27 min
    Bit rate mode               : Variable
    Bit rate                    : 3 511 kb/s
    Channel(s)                  : 6 channels
    Channel layout              : C L R Ls Rs LFE
    Sampling rate               : 48.0 kHz
    Frame rate                  : 93.750 FPS (512 SPF)
    Bit depth                   : 24 bits
    Compression mode            : Lossless
    Stream size                 : 2.16 GiB (14%)
    Title                       : Ingles [CinemaniaHDD]
    Language                    : English
    Default                     : No
    Forced                      : No

    Text #1
    ID                          : 4
    Format                      : UTF-8
    Codec ID                    : S_TEXT/UTF8
    Codec ID/Info               : UTF-8 Plain Text
    Duration                    : 1 h 8 min
    Bit rate                    : 0 b/s
    Count of elements           : 14
    Stream size                 : 359 Bytes (0%)
    Title                       : Forzados-SRT [CinemaniaHDD]
    Language                    : Spanish
    Default                     : Yes
    Forced                      : Yes

    Text #2
    ID                          : 5
    Format                      : UTF-8
    Codec ID                    : S_TEXT/UTF8
    Codec ID/Info               : UTF-8 Plain Text
    Duration                    : 1 h 26 min
    Bit rate                    : 30 b/s
    Count of elements           : 715
    Stream size                 : 19.4 KiB (0%)
    Title                       : Español-SRT [CinemaniaHDD]
    Language                    : Spanish
    Default                     : No
    Forced                      : No

    Text #3
    ID                          : 6
    Format                      : UTF-8
    Codec ID                    : S_TEXT/UTF8
    Codec ID/Info               : UTF-8 Plain Text
    Duration                    : 1 h 27 min
    Bit rate                    : 42 b/s
    Count of elements           : 1183
    Stream size                 : 27.4 KiB (0%)
    Title                       : Ingles [CinemaniaHDD]
    Language                    : English
    Default                     : No
    Forced                      : No

    Menu
    00:00:00.000                : Chapter 1
    00:09:29.152                : Chapter 2
    00:17:21.082                : Chapter 3
    00:24:54.910                : Chapter 4
    00:35:04.728                : Chapter 5
    00:41:06.422                : Chapter 6
    00:49:11.407                : Chapter 7
    00:57:51.718                : Chapter 8
    01:06:16.181                : Chapter 9
    01:13:46.422                : Chapter 10
    01:20:37.499                : Chapter 11
    01:24:38.824                : Chapter 12

  • Peso: 15.4 GiB

Sinopsis

Descargar Secreto Oscuro (2020) REMUX 1080p Latino. Liberty, una joven de 16 años, regresa a casa después de dos meses en un campamento y conoce al prometido de su madre, John Smith, cuyas cualidades parecen demasiado perfectas para ser humanas.

Ficha técnica

Video trailer de la película

Enlaces de descarga

Rip de Bluray

Descargar Secreto Oscuro (2020) REMUX 1080p Latino




Aportes de DPeliculasHDmega la pass es:dpeliculashdmega.org Aportes de CinemaniaHD la pass es:cinemaniahdd.com

Películas relacionadas

descargar Secreto Oscuro (2020) REMUX 1080p Latino Full 1080p 1080p gratis, Secreto Oscuro (2020) REMUX 1080p Latino Full 1080p mega 1 link, Secreto Oscuro (2020) REMUX 1080p Latino Full 1080p pelicula completa, descargar Secreto Oscuro (2020) REMUX 1080p Latino Full 1080p gratis en mega.

Secreto Oscuro (2020) REMUX 1080p Latino pelicula full hd, Secreto Oscuro (2020) REMUX 1080p Latino mega latino, Secreto Oscuro (2020) REMUX 1080p Latino 4k latino, Secreto Oscuro (2020) REMUX 1080p Latino pelicula completa, Secreto Oscuro (2020) REMUX 1080p Latino descargar gratis, descargar Secreto Oscuro (2020) REMUX 1080p Latino pelicula latino, Secreto Oscuro (2020) REMUX 1080p Latino 1 link mega, Secreto Oscuro (2020) REMUX 1080p Latino 1 link google drive, Secreto Oscuro (2020) REMUX 1080p Latino hd 1080p latino.
Comentarios 0