×

¿Problemas para descargar con Mozilla, EDGE? Deshabilita la opción "Abrir vinculos en una pestaña nueva" tal como lo muestra ésta imagen.

Secret Summer (2016) Web-DL 1080p Latino

339 vistas

Información de Secret Summer (2016) Web-DL 1080p Latino

Datos de la película

  • Calidad: WEBDL
  • Audio: Se especifica abajo de la Sinopsis
  • Subtitulos: No
  • Resolución: 1920x1080p
  • Formato: MKV
  • Codec: H.264
  • Encoder: CinemaniaHDD
  • Mediainfo: Clic para Mostrar Datos Ver
  • Secret Summer (2016) WebDL 1080p Latino.mkv
    Format                      : Matroska
    Format version              : Version 4
    File size                   : 2.05 GiB
    Duration                    : 1 h 24 min
    Overall bit rate            : 3 500 kb/s
    Movie name                  : Secret Summer (2016) CinemaniaHDD.Net
    Encoded date                : UTC 2020-06-01 15:33:19
    Writing application         : mkvmerge v46.0.0 ('No Deeper Escape') 64-bit
    Writing library             : libebml v1.3.10 + libmatroska v1.5.2
    Attachments                 : CINEMANIAHD.png

    Video
    ID                          : 1
    Format                      : AVC
    Format/Info                 : Advanced Video Codec
    Format profile              : High@L4
    Format settings             : CABAC / 3 Ref Frames
    Format settings, CABAC      : Yes
    Format settings, Reference  : 3 frames
    Codec ID                    : V_MPEG4/ISO/AVC
    Duration                    : 1 h 23 min
    Bit rate                    : 2 987 kb/s
    Width                       : 1 920 pixels
    Height                      : 1 080 pixels
    Display aspect ratio        : 16:9
    Frame rate mode             : Constant
    Frame rate                  : 23.976 (24000/1001) FPS
    Color space                 : YUV
    Chroma subsampling          : 4:2:0
    Bit depth                   : 8 bits
    Scan type                   : Progressive
    Bits/(Pixel*Frame)          : 0.060
    Stream size                 : 1.75 GiB (85%)
    Title                       : Web HD1080p [CinemaniaHDD]
    Default                     : Yes
    Forced                      : No

    Audio #1
    ID                          : 2
    Format                      : AC-3
    Format/Info                 : Audio Coding 3
    Commercial name             : Dolby Digital
    Codec ID                    : A_AC3
    Duration                    : 1 h 24 min
    Bit rate mode               : Constant
    Bit rate                    : 256 kb/s
    Channel(s)                  : 2 channels
    Channel layout              : L R
    Sampling rate               : 48.0 kHz
    Frame rate                  : 31.250 FPS (1536 SPF)
    Compression mode            : Lossy
    Delay relative to video     : 1 s 0 ms
    Stream size                 : 154 MiB (7%)
    Title                       : Español Latino [CinemaniaHDD]
    Language                    : Spanish
    Service kind                : Complete Main
    Default                     : Yes
    Forced                      : No

    Audio #2
    ID                          : 3
    Format                      : AC-3
    Format/Info                 : Audio Coding 3
    Commercial name             : Dolby Digital
    Codec ID                    : A_AC3
    Duration                    : 1 h 23 min
    Bit rate mode               : Constant
    Bit rate                    : 256 kb/s
    Channel(s)                  : 2 channels
    Channel layout              : L R
    Sampling rate               : 48.0 kHz
    Frame rate                  : 31.250 FPS (1536 SPF)
    Compression mode            : Lossy
    Stream size                 : 154 MiB (7%)
    Title                       : Ingles [CinemaniaHDD]
    Language                    : English
    Service kind                : Complete Main
    Default                     : No
    Forced                      : No

  • Peso: 2.05 GiB

Sinopsis

Rachel (Lindsey Shaw) recibe la noticia de que su cliente de primer nivel quiere comprar la querida biblioteca de un pequeño pueblo para construir un resort y spa en la tierra. Rachel está completamente en contra de la idea de dejar Nueva York, pero pierde la discusión con su jefe. Entonces Rachel empaca sus maletas y vuela a California. Durante su primera visita a la biblioteca, se encuentra con el escritor Jake (Derek Theler), quien está investigando la historia de los tesoros escondidos del Capitán Black Bart para su próxima novela. Con la esperanza de salvar la biblioteca, la Sra. Archer (Rachel Ticotin), la bibliotecaria, presiona a Jake para que le muestre a Rachel lo que la biblioteca significa para la ciudad.

Español Latino AC3 2.0 – Ingles AC3 2.0

Ficha técnica

Video trailer de la película

Enlaces de descarga

Rip de Bluray

Descargar Secret Summer (2016) Web-DL 1080p Latino




Aportes de DPeliculasHDmega la pass es:dpeliculashdmega.org Aportes de CinemaniaHD la pass es:cinemaniahdd.com
Guardado en : Comedia , Familia , Película de TV , Romance

Películas relacionadas

descargar Secret Summer (2016) Web-DL 1080p Latino WEBDL 1080p gratis, Secret Summer (2016) Web-DL 1080p Latino WEBDL mega 1 link, Secret Summer (2016) Web-DL 1080p Latino WEBDL pelicula completa, descargar Secret Summer (2016) Web-DL 1080p Latino WEBDL gratis en mega.

Secret Summer (2016) Web-DL 1080p Latino pelicula full hd, Secret Summer (2016) Web-DL 1080p Latino mega latino, Secret Summer (2016) Web-DL 1080p Latino 4k latino, Secret Summer (2016) Web-DL 1080p Latino pelicula completa, Secret Summer (2016) Web-DL 1080p Latino descargar gratis, descargar Secret Summer (2016) Web-DL 1080p Latino pelicula latino, Secret Summer (2016) Web-DL 1080p Latino 1 link mega, Secret Summer (2016) Web-DL 1080p Latino 1 link google drive, Secret Summer (2016) Web-DL 1080p Latino hd 1080p latino.
Comentarios 0