×

¿Problemas para descargar con Mozilla, EDGE? Deshabilita la opción "Abrir vinculos en una pestaña nueva" tal como lo muestra ésta imagen.

Sebastian Fitzeks Die Therapie (2023) Primera Temporada AMZN WEB-DL 1080p Latino

120 vistas

Información de Sebastian Fitzeks Die Therapie (2023) Primera Temporada AMZN WEB-DL 1080p Latino

Datos de la película

  • Calidad: 1080p
  • Audio: Español Latino AC3 5.1 WEB-DL - Ingles AC3 5.1 WEB-DL
  • Subtitulos: Español Latino SRT- FORZADOS SRT
  • Resolución: 1920x800
  • Formato: MKV
  • Codec: H.264
  • Encoder: cinemaniahdd
  • Mediainfo: Clic para Mostrar Datos Ver
  • Sebastian Fitzeks Therapy T01E01 AMZN WEB-DL 1080p Latino [CNMNHDD].mkv
    Format                      : Matroska
    Format version              : Version 4
    File size                   : 2.73 GiB
    Duration                    : 51 min 53 s
    Overall bit rate            : 7 543 kb/s
    Movie name                  : Sebastian Fitzeks Therapy S01E01 - Sebastian Fitzek's Therapy - Without a Trace [1080p] - CinemaniaHDD.Net
    Encoded date                : UTC 2023-10-27 01:07:57
    Writing application         : mkvmerge v56.1.0 ('My Friend') 64-bit
    Writing library             : libebml v1.4.2 + libmatroska v1.6.4

    Video
    ID                          : 1
    Format                      : AVC
    Format/Info                 : Advanced Video Codec
    Format profile              : High@L4
    Format settings             : CABAC / 4 Ref Frames
    Format settings, CABAC      : Yes
    Format settings, Reference  : 4 frames
    Codec ID                    : V_MPEG4/ISO/AVC
    Duration                    : 51 min 53 s
    Bit rate mode               : Constant
    Bit rate                    : 5 620 kb/s
    Nominal bit rate            : 10 000 kb/s
    Width                       : 1 920 pixels
    Height                      : 800 pixels
    Display aspect ratio        : 2.40:1
    Frame rate mode             : Constant
    Frame rate                  : 25.000 FPS
    Color space                 : YUV
    Chroma subsampling          : 4:2:0
    Bit depth                   : 8 bits
    Scan type                   : Progressive
    Bits/(Pixel*Frame)          : 0.146
    Stream size                 : 2.04 GiB (75%)
    Title                       : CinemaniaHDD
    Default                     : Yes
    Forced                      : No
    Color range                 : Limited
    Color primaries             : BT.709
    Transfer characteristics    : BT.709
    Matrix coefficients         : BT.709

    Audio #1
    ID                          : 2
    Format                      : AC-3
    Format/Info                 : Audio Coding 3
    Commercial name             : Dolby Digital
    Codec ID                    : A_AC3
    Duration                    : 51 min 53 s
    Bit rate mode               : Constant
    Bit rate                    : 640 kb/s
    Channel(s)                  : 6 channels
    Channel layout              : L R C LFE Ls Rs
    Sampling rate               : 48.0 kHz
    Frame rate                  : 31.250 FPS (1536 SPF)
    Compression mode            : Lossy
    Stream size                 : 238 MiB (8%)
    Title                       : Español Latino [CinemaniaHDD]
    Language                    : Spanish
    Service kind                : Complete Main
    Default                     : Yes
    Forced                      : No

    Audio #2
    ID                          : 3
    Format                      : E-AC-3
    Format/Info                 : Enhanced AC-3
    Commercial name             : Dolby Digital Plus
    Codec ID                    : A_EAC3
    Duration                    : 51 min 53 s
    Bit rate mode               : Constant
    Bit rate                    : 640 kb/s
    Channel(s)                  : 6 channels
    Channel layout              : L R C LFE Ls Rs
    Sampling rate               : 48.0 kHz
    Frame rate                  : 31.250 FPS (1536 SPF)
    Compression mode            : Lossy
    Stream size                 : 238 MiB (8%)
    Title                       : Español latino / E-AC3 [CinemaniaHDD]
    Language                    : Spanish
    Service kind                : Complete Main
    Default                     : No
    Forced                      : No

    Audio #3
    ID                          : 4
    Format                      : E-AC-3
    Format/Info                 : Enhanced AC-3
    Commercial name             : Dolby Digital Plus
    Codec ID                    : A_EAC3
    Duration                    : 51 min 53 s
    Bit rate mode               : Constant
    Bit rate                    : 640 kb/s
    Channel(s)                  : 6 channels
    Channel layout              : L R C LFE Ls Rs
    Sampling rate               : 48.0 kHz
    Frame rate                  : 31.250 FPS (1536 SPF)
    Compression mode            : Lossy
    Stream size                 : 238 MiB (8%)
    Title                       : Inglés [CinemaniaHDD]
    Language                    : English
    Service kind                : Complete Main
    Default                     : No
    Forced                      : No

    Text #1
    ID                          : 5
    Format                      : UTF-8
    Codec ID                    : S_TEXT/UTF8
    Codec ID/Info               : UTF-8 Plain Text
    Duration                    : 38 min 36 s
    Bit rate                    : 1 b/s
    Count of elements           : 18
    Stream size                 : 499 Bytes (0%)
    Title                       : Forzados [CinemaniaHDD]
    Language                    : Spanish
    Default                     : Yes
    Forced                      : Yes

    Text #2
    ID                          : 6
    Format                      : UTF-8
    Codec ID                    : S_TEXT/UTF8
    Codec ID/Info               : UTF-8 Plain Text
    Duration                    : 49 min 50 s
    Bit rate                    : 40 b/s
    Count of elements           : 520
    Stream size                 : 14.8 KiB (0%)
    Title                       : Español Latino [CinemaniaHDD]
    Language                    : Spanish
    Default                     : No
    Forced                      : No

    Text #3
    ID                          : 7
    Format                      : UTF-8
    Codec ID                    : S_TEXT/UTF8
    Codec ID/Info               : UTF-8 Plain Text
    Duration                    : 47 min 55 s
    Bit rate                    : 43 b/s
    Count of elements           : 515
    Stream size                 : 15.4 KiB (0%)
    Title                       : Inglés [CinemaniaHDD]
    Language                    : English
    Default                     : No
    Forced                      : No

    Menu
    00:00:00.000                : 1. Prime Video
    00:00:06.000                : Scene 2
    00:03:31.000                : 3. Title Sequence
    00:03:39.000                : Scene 4
    00:09:26.000                : Scene 5
    00:15:06.000                : Scene 6
    00:21:09.000                : Scene 7
    00:27:33.000                : Scene 8
    00:32:02.000                : Scene 9
    00:38:14.000                : Scene 10
    00:44:08.000                : Scene 11
    00:48:44.000                : 12. End Credits

     

  • Peso: 2.73 GiB Aprox ---- 15 GiB in 6 Chapters.

Sinopsis

Un cautivador thriller psicológico basado en la novela de Fitzek. Sin testigos, sin dejar rastros, sin un cadáver, Josy, la hija de 13 años del reconocido psiquiatra Viktor Larenz, desaparece bajo circunstancias inexplicables. Dos años después, una mujer misteriosa aparece y obliga a Viktor a enfrentar la desaparición de su hija y lo lleva al límite de su psique.

Ficha técnica

Video trailer de la película

Enlaces de descarga

Rip de Bluray

Descargar Sebastian Fitzeks Die Therapie (2023) Primera Temporada AMZN WEB-DL 1080p Latino




Aportes de DPeliculasHDmega la pass es:dpeliculashdmega.org Aportes de CinemaniaHD la pass es:cinemaniahdd.com Aportes recientes:cinemaniahdd.net
Guardado en : Drama , Misterio , Series

Películas relacionadas

descargar Sebastian Fitzeks Die Therapie (2023) Primera Temporada AMZN WEB-DL 1080p Latino 1080p 1080p gratis, Sebastian Fitzeks Die Therapie (2023) Primera Temporada AMZN WEB-DL 1080p Latino 1080p mega 1 link, Sebastian Fitzeks Die Therapie (2023) Primera Temporada AMZN WEB-DL 1080p Latino 1080p serie completa, descargar Sebastian Fitzeks Die Therapie (2023) Primera Temporada AMZN WEB-DL 1080p Latino 1080p gratis en mega.

Sebastian Fitzeks Die Therapie (2023) Primera Temporada AMZN WEB-DL 1080p Latino pelicula full hd, Sebastian Fitzeks Die Therapie (2023) Primera Temporada AMZN WEB-DL 1080p Latino mega latino, Sebastian Fitzeks Die Therapie (2023) Primera Temporada AMZN WEB-DL 1080p Latino 4k latino, Sebastian Fitzeks Die Therapie (2023) Primera Temporada AMZN WEB-DL 1080p Latino pelicula completa, Sebastian Fitzeks Die Therapie (2023) Primera Temporada AMZN WEB-DL 1080p Latino descargar gratis, descargar Sebastian Fitzeks Die Therapie (2023) Primera Temporada AMZN WEB-DL 1080p Latino pelicula latino, Sebastian Fitzeks Die Therapie (2023) Primera Temporada AMZN WEB-DL 1080p Latino 1 link mega, Sebastian Fitzeks Die Therapie (2023) Primera Temporada AMZN WEB-DL 1080p Latino 1 link google drive, Sebastian Fitzeks Die Therapie (2023) Primera Temporada AMZN WEB-DL 1080p Latino hd 1080p latino.
Comentarios 0