×

¿Problemas para descargar con Mozilla, EDGE? Deshabilita la opción "Abrir vinculos en una pestaña nueva" tal como lo muestra ésta imagen.

Temporada de brujas (2011) REMUX 1080p Latino

312 vistas

Información de Temporada de brujas (2011) REMUX 1080p Latino

Datos de la película

  • Calidad: Full 1080p
  • Audio: Español Latino AC3 2.0 DVD - Ingles DTS 5.1 BLURAY
  • Subtitulos: Español Latino SRT - Ingles SRT
  • Resolución: 1920x1080p
  • Formato: MKV
  • Codec: H.264
  • Encoder: CinefiloCool
  • Mediainfo: Clic para Mostrar Datos Ver
  • Temporada De Brujas (2011) REMUX 1080p Latino-CMHDD.mkv
    Format                      : Matroska
    Format version              : Version 4
    File size                   : 27.6 GiB
    Duration                    : 1 h 34 min
    Overall bit rate mode       : Variable
    Overall bit rate            : 41.5 Mb/s
    Movie name                  : Season Of The Witch (2011) CinemaniaHDD.Net
    Encoded date                : UTC 2022-08-01 05:43:08
    Writing application         : mkvmerge v56.1.0 ('My Friend') 64-bit
    Writing library             : libebml v1.4.2 + libmatroska v1.6.4
    Attachments                 : CINEMANIAHD.png

    Video
    ID                          : 1
    Format                      : AVC
    Format/Info                 : Advanced Video Codec
    Format profile              : High@L4.1
    Format settings             : CABAC / 4 Ref Frames
    Format settings, CABAC      : Yes
    Format settings, Reference  : 4 frames
    Codec ID                    : V_MPEG4/ISO/AVC
    Duration                    : 1 h 34 min
    Bit rate mode               : Variable
    Bit rate                    : 35.7 Mb/s
    Maximum bit rate            : 39.5 Mb/s
    Width                       : 1 920 pixels
    Height                      : 1 080 pixels
    Display aspect ratio        : 16:9
    Frame rate mode             : Constant
    Frame rate                  : 23.976 (24000/1001) FPS
    Color space                 : YUV
    Chroma subsampling          : 4:2:0
    Bit depth                   : 8 bits
    Scan type                   : Progressive
    Bits/(Pixel*Frame)          : 0.718
    Stream size                 : 23.7 GiB (86%)
    Title                       : REMUX HD1080p [CinemaniaHDD]
    Default                     : Yes
    Forced                      : Yes

    Audio #1
    ID                          : 2
    Format                      : AC-3
    Format/Info                 : Audio Coding 3
    Commercial name             : Dolby Digital
    Codec ID                    : A_AC3
    Duration                    : 1 h 34 min
    Bit rate mode               : Constant
    Bit rate                    : 256 kb/s
    Channel(s)                  : 2 channels
    Channel layout              : L R
    Sampling rate               : 48.0 kHz
    Frame rate                  : 31.250 FPS (1536 SPF)
    Compression mode            : Lossy
    Stream size                 : 174 MiB (1%)
    Title                       : Español Latino [CinemaniaHDD]
    Language                    : Spanish
    Service kind                : Complete Main
    Default                     : Yes
    Forced                      : Yes

    Audio #2
    ID                          : 3
    Format                      : DTS XLL
    Format/Info                 : Digital Theater Systems
    Commercial name             : DTS-HD Master Audio
    Codec ID                    : A_DTS
    Duration                    : 1 h 34 min
    Bit rate mode               : Variable
    Bit rate                    : 5 608 kb/s
    Channel(s)                  : 8 channels
    Channel layout              : C L R LFE Lb Rb Lss Rss
    Sampling rate               : 48.0 kHz
    Frame rate                  : 93.750 FPS (512 SPF)
    Bit depth                   : 24 bits
    Compression mode            : Lossless
    Stream size                 : 3.72 GiB (14%)
    Title                       : Ingles [CinemaniaHDD]
    Language                    : English
    Default                     : No
    Forced                      : No

    Text #1
    ID                          : 4
    Format                      : UTF-8
    Codec ID                    : S_TEXT/UTF8
    Codec ID/Info               : UTF-8 Plain Text
    Duration                    : 1 h 26 min
    Bit rate                    : 0 b/s
    Count of elements           : 10
    Stream size                 : 263 Bytes (0%)
    Title                       : Forzados-SRT [CinemaniaHDD]
    Language                    : Spanish
    Default                     : Yes
    Forced                      : Yes

    Text #2
    ID                          : 5
    Format                      : UTF-8
    Codec ID                    : S_TEXT/UTF8
    Codec ID/Info               : UTF-8 Plain Text
    Duration                    : 1 h 26 min
    Bit rate                    : 37 b/s
    Count of elements           : 753
    Stream size                 : 23.7 KiB (0%)
    Title                       : Español-SRT [CinemaniaHDD]
    Language                    : Spanish
    Default                     : No
    Forced                      : No

    Text #3
    ID                          : 6
    Format                      : UTF-8
    Codec ID                    : S_TEXT/UTF8
    Codec ID/Info               : UTF-8 Plain Text
    Duration                    : 1 h 25 min
    Bit rate                    : 37 b/s
    Count of elements           : 825
    Stream size                 : 23.6 KiB (0%)
    Title                       : Ingles [CinemaniaHDD]
    Language                    : English
    Default                     : No
    Forced                      : No

    Menu
    00:00:00.000                : :Chapter 01
    00:05:34.751                : :Chapter 02
    00:12:02.930                : :Chapter 03
    00:16:29.196                : :Chapter 04
    00:23:05.592                : :Chapter 05
    00:28:58.236                : :Chapter 06
    00:33:58.661                : :Chapter 07
    00:39:42.213                : :Chapter 08
    00:44:59.363                : :Chapter 09
    00:48:58.685                : :Chapter 10
    00:55:39.794                : :Chapter 11
    01:03:07.909                : :Chapter 12
    01:08:13.631                : :Chapter 13
    01:14:18.287                : :Chapter 14
    01:23:47.897                : :Chapter 15
    01:27:06.721                : :Chapter 16

  • Peso: 27.6 GiB

Sinopsis

Descargar Temporada de brujas (2011) REMUX 1080p Latino. A mediados del siglo XIV, el caballero Lavey (Nicolas Cage) escolta hasta un monasterio a una joven acusada de brujería. Los monjes aseguran que ella es la responsable de que la Peste Negra asole y destruya Europa. Lavey, escéptico, no acepta esta explicación y con un grupo de bravos guerreros emprende un viaje para demostrar la inocencia de la joven, pero el azar los conducirá a un lugar donde les esperan las fuerzas de las oscuridad…

Audio Español Latino AC3 2.0 DVD – Ingles DTS-HD 7.1 Bluray
Disponible Solo Para VIP!!!

Ficha técnica

Video trailer de la película

Enlaces de descarga

Rip de Bluray

Descargar Temporada de brujas (2011) REMUX 1080p Latino


Aportes de DPeliculasHDmega la pass es:dpeliculashdmega.org Aportes de CinemaniaHD la pass es:cinemaniahdd.com
Guardado en : Acción , Aventura , Fantasía , Remux

Películas relacionadas

descargar Temporada de brujas (2011) REMUX 1080p Latino Full 1080p 1080p gratis, Temporada de brujas (2011) REMUX 1080p Latino Full 1080p mega 1 link, Temporada de brujas (2011) REMUX 1080p Latino Full 1080p pelicula completa, descargar Temporada de brujas (2011) REMUX 1080p Latino Full 1080p gratis en mega.

Temporada de brujas (2011) REMUX 1080p Latino pelicula full hd, Temporada de brujas (2011) REMUX 1080p Latino mega latino, Temporada de brujas (2011) REMUX 1080p Latino 4k latino, Temporada de brujas (2011) REMUX 1080p Latino pelicula completa, Temporada de brujas (2011) REMUX 1080p Latino descargar gratis, descargar Temporada de brujas (2011) REMUX 1080p Latino pelicula latino, Temporada de brujas (2011) REMUX 1080p Latino 1 link mega, Temporada de brujas (2011) REMUX 1080p Latino 1 link google drive, Temporada de brujas (2011) REMUX 1080p Latino hd 1080p latino.
Comentarios 0