×

¿Problemas para descargar con Mozilla, EDGE? Deshabilita la opción "Abrir vinculos en una pestaña nueva" tal como lo muestra ésta imagen.

Se7en (1995) REMUX 1080p Latino – CMHDD

139 vistas

Información de Se7en (1995) REMUX 1080p Latino – CMHDD

Datos de la película

  • Calidad: Full 1080p
  • Audio: Español Latino AC3 2.0 BLURAY - Ingles DTS 5.1 BLURAY
  • Subtitulos: Español Latino PGS
  • Resolución: 1920x1080p
  • Formato: MKV
  • Codec: H.264
  • Encoder: Dracarys
  • Mediainfo: Clic para Mostrar Datos Ver
  • Format                      : Matroska
    Format version              : Version 4
    File size                   : 27.6 GiB
    Duration                    : 2 h 6 min
    Overall bit rate mode       : Variable
    Overall bit rate            : 31.1 Mb/s
    Movie name                  : Se7en (1995) REMUX 1080p Latino - CMHDD
    Encoded date                : UTC 2021-09-15 03:45:11
    Writing application         : mkvmerge v17.0.0 ('Be Ur Friend') 64-bit
    Writing library             : libebml v1.3.5 + libmatroska v1.4.8

    Video
    ID                          : 1
    Format                      : VC-1
    Format profile              : Advanced@L3
    Codec ID                    : V_MS/VFW/FOURCC / WVC1
    Codec ID/Hint               : Microsoft
    Duration                    : 2 h 6 min
    Bit rate                    : 25.4 Mb/s
    Width                       : 1 920 pixels
    Height                      : 1 080 pixels
    Display aspect ratio        : 16:9
    Frame rate mode             : Constant
    Frame rate                  : 23.976 (24000/1001) FPS
    Color space                 : YUV
    Chroma subsampling          : 4:2:0
    Bit depth                   : 8 bits
    Scan type                   : Progressive
    Compression mode            : Lossy
    Bits/(Pixel*Frame)          : 0.512
    Stream size                 : 22.5 GiB (82%)
    Default                     : Yes
    Forced                      : No

    Audio #1
    ID                          : 2
    Format                      : DTS ES XLL
    Format/Info                 : Digital Theater Systems
    Commercial name             : DTS-HD Master Audio
    Codec ID                    : A_DTS
    Duration                    : 2 h 6 min
    Bit rate mode               : Variable
    Bit rate                    : 5 447 kb/s
    Channel(s)                  : 8 channels
    Channel layout              : C L R Ls Rs LFE Lb Rb
    Sampling rate               : 48.0 kHz
    Frame rate                  : 93.750 FPS (512 SPF)
    Bit depth                   : 24 bits
    Compression mode            : Lossless
    Stream size                 : 4.83 GiB (18%)
    Language                    : English
    Default                     : No
    Forced                      : No

    Audio #2
    ID                          : 3
    Format                      : AC-3
    Format/Info                 : Audio Coding 3
    Commercial name             : Dolby Digital
    Format settings             : Dolby Surround
    Codec ID                    : A_AC3
    Duration                    : 2 h 6 min
    Bit rate mode               : Constant
    Bit rate                    : 192 kb/s
    Channel(s)                  : 2 channels
    Channel layout              : L R
    Sampling rate               : 48.0 kHz
    Frame rate                  : 31.250 FPS (1536 SPF)
    Compression mode            : Lossy
    Stream size                 : 174 MiB (1%)
    Language                    : Spanish
    Service kind                : Complete Main
    Default                     : Yes
    Forced                      : No

    Text
    ID                          : 4
    Format                      : PGS
    Muxing mode                 : zlib
    Codec ID                    : S_HDMV/PGS
    Codec ID/Info               : Picture based subtitle format used on BDs/HD-DVDs
    Duration                    : 2 h 5 min
    Bit rate                    : 32.3 kb/s
    Count of elements           : 3145
    Stream size                 : 29.1 MiB (0%)
    Language                    : Spanish
    Default                     : No
    Forced                      : No

    Menu
    00:00:00.000                : en:Chapter 1
    00:04:11.251                : en:Chapter 2
    00:06:19.253                : en:Chapter 3
    00:07:33.744                : en:Chapter 4
    00:14:47.511                : en:Chapter 5
    00:17:07.443                : en:Chapter 6
    00:18:11.465                : en:Chapter 7
    00:21:42.175                : en:Chapter 8
    00:24:26.756                : en:Chapter 9
    00:29:28.516                : en:Chapter 10
    00:30:27.033                : en:Chapter 11
    00:33:13.157                : en:Chapter 12
    00:37:28.454                : en:Chapter 13
    00:42:23.541                : en:Chapter 14
    00:43:32.860                : en:Chapter 15
    00:47:43.235                : en:Chapter 16
    00:50:18.390                : en:Chapter 17
    00:54:24.803                : en:Chapter 18
    00:57:28.194                : en:Chapter 19
    01:01:45.159                : en:Chapter 20
    01:04:19.605                : en:Chapter 21
    01:07:26.584                : en:Chapter 22
    01:14:45.022                : en:Chapter 23
    01:20:34.037                : en:Chapter 24
    01:24:07.250                : en:Chapter 25
    01:25:04.140                : en:Chapter 26
    01:28:15.498                : en:Chapter 27
    01:33:05.162                : en:Chapter 28
    01:33:58.799                : en:Chapter 29
    01:36:46.967                : en:Chapter 30
    01:39:04.480                : en:Chapter 31
    01:40:53.797                : en:Chapter 32
    01:44:05.030                : en:Chapter 33
    01:50:53.855                : en:Chapter 34
    01:53:06.196                : en:Chapter 35
    01:56:56.634                : en:Chapter 36
    02:02:00.313                : en:Chapter 37

  • Peso: 27.6 GiB

Sinopsis

El teniente Somerset, del departamento de homicidios, está a punto de jubilarse y ser reemplazado por el ambicioso y brillante detective David Mills. Ambos tendrán que colaborar en la resolución de una serie de asesinatos cometidos por un psicópata que toma como base la relación de los siete pecados capitales: gula, pereza, soberbia, avaricia, envidia, lujuria e ira. Los cuerpos de las víctimas, sobre los que el asesino se ensaña de manera impúdica, se convertirán para los policías en un enigma que les obligará a viajar al horror y la barbarie más absoluta.

Ficha técnica

Video trailer de la película

Enlaces de descarga

Rip de Bluray

Descargar Se7en (1995) REMUX 1080p Latino – CMHDD


Aportes de DPeliculasHDmega la pass es:dpeliculashdmega.org Aportes de CinemaniaHD la pass es:cinemaniahdd.com
Guardado en : Crimen , Misterio , Suspenso

Películas relacionadas

  • Wire Room (2022) HD 1080p Latino

    Wire Room (2022) HD 1080p Latino

    2022
    Wire Room (2022) HD 1080p Latino

    1h 37m 2022

    Descargar Wire Room (2022) HD 1080p Latino. Mientras está de servicio en la sala de cables, un agente...

    Director: Matt Eskandari

    Género: Acción

    Actores: Texas Battle

  • Wire Room (2022) PLACEBO Full HD 1080p Latino

    Wire Room (2022) PLACEBO Full HD 1080p Latino

    2022
    Wire Room (2022) PLACEBO Full HD 1080p Latino

    1h 37m 2022

    Descargar Wire Room (2022) PLACEBO Full HD 1080p Latino. Mientras está de servicio en la sala de cables,...

    Director: Matt Eskandari

    Género: Acción

    Actores: Texas Battle

  • Wire Room (2022) REMUX 1080p Latino

    Wire Room (2022) REMUX 1080p Latino

    2022
    Wire Room (2022) REMUX 1080p Latino

    1h 37m 2022

    Descargar Wire Room (2022) REMUX 1080p Latino. Mientras está de servicio en la sala de cables, un agente...

    Director: Matt Eskandari

    Género: Acción

    Actores: Texas Battle

  • Alarido (2022) HD 1080p Latino

    Alarido (2022) HD 1080p Latino

    2022
    Alarido (2022) HD 1080p Latino

    1h 29m 2022

    Descargar Alarido (2022) HD 1080p Latino. Una joven madre soltera es cautiva junto con sus dos hijos...

    Director: D.J. Caruso

    Género: HD 1080p

    Actores: Vincent Gallo

  • Alarido (2022) PLACEBO Full HD 1080p Latino

    Alarido (2022) PLACEBO Full HD 1080p Latino

    2022
    Alarido (2022) PLACEBO Full HD 1080p Latino

    1h 29m 2022

    Descargar Alarido (2022) PLACEBO Full HD 1080p Latino. Una joven madre soltera es cautiva junto con sus...

    Director: D.J. Caruso

    Género: FULL 1080p Plateadas

    Actores: Vincent Gallo

descargar Se7en (1995) REMUX 1080p Latino – CMHDD Full 1080p 1080p gratis, Se7en (1995) REMUX 1080p Latino – CMHDD Full 1080p mega 1 link, Se7en (1995) REMUX 1080p Latino – CMHDD Full 1080p pelicula completa, descargar Se7en (1995) REMUX 1080p Latino – CMHDD Full 1080p gratis en mega.

Se7en (1995) REMUX 1080p Latino – CMHDD pelicula full hd, Se7en (1995) REMUX 1080p Latino – CMHDD mega latino, Se7en (1995) REMUX 1080p Latino – CMHDD 4k latino, Se7en (1995) REMUX 1080p Latino – CMHDD pelicula completa, Se7en (1995) REMUX 1080p Latino – CMHDD descargar gratis, descargar Se7en (1995) REMUX 1080p Latino – CMHDD pelicula latino, Se7en (1995) REMUX 1080p Latino – CMHDD 1 link mega, Se7en (1995) REMUX 1080p Latino – CMHDD 1 link google drive, Se7en (1995) REMUX 1080p Latino – CMHDD hd 1080p latino.