×

¿Problemas para descargar con Mozilla, EDGE? Deshabilita la opción "Abrir vinculos en una pestaña nueva" tal como lo muestra ésta imagen.

Scrooged (1988) REMUX 1080p Latino – CMHDD

90 vistas

Información de Scrooged (1988) REMUX 1080p Latino – CMHDD

Datos de la película

  • Calidad: Full 1080p
  • Audio: Español Latino AC3 2.0 BLURAY - Ingles DTS 5.1 BLURAY
  • Subtitulos: Español Latino PGS
  • Resolución: 1920x1080p
  • Formato: MKV
  • Codec: H.264
  • Encoder: Dracarys
  • Mediainfo: Clic para Mostrar Datos Ver
  • Format                      : Matroska
    Format version              : Version 4
    File size                   : 27.4 GiB
    Duration                    : 1 h 40 min
    Overall bit rate mode       : Variable
    Overall bit rate            : 38.9 Mb/s
    Movie name                  : Scrooged (1988) REMUX 1080p Latino - CMHDD
    Encoded date                : UTC 2021-12-10 18:47:18
    Writing application         : mkvmerge v17.0.0 ('Be Ur Friend') 64-bit
    Writing library             : libebml v1.3.5 + libmatroska v1.4.8

    Video
    ID                          : 1
    Format                      : AVC
    Format/Info                 : Advanced Video Codec
    Format profile              : High@L4.1
    Format settings             : CABAC / 4 Ref Frames
    Format settings, CABAC      : Yes
    Format settings, Reference  : 4 frames
    Codec ID                    : V_MPEG4/ISO/AVC
    Duration                    : 1 h 40 min
    Bit rate mode               : Variable
    Bit rate                    : 34.8 Mb/s
    Maximum bit rate            : 37.0 Mb/s
    Width                       : 1 920 pixels
    Height                      : 1 080 pixels
    Display aspect ratio        : 16:9
    Frame rate mode             : Constant
    Frame rate                  : 23.976 (24000/1001) FPS
    Color space                 : YUV
    Chroma subsampling          : 4:2:0
    Bit depth                   : 8 bits
    Scan type                   : Progressive
    Bits/(Pixel*Frame)          : 0.700
    Stream size                 : 24.5 GiB (89%)
    Default                     : Yes
    Forced                      : No

    Audio #1
    ID                          : 2
    Format                      : DTS XLL
    Format/Info                 : Digital Theater Systems
    Commercial name             : DTS-HD Master Audio
    Codec ID                    : A_DTS
    Duration                    : 1 h 40 min
    Bit rate mode               : Variable
    Bit rate                    : 3 867 kb/s
    Channel(s)                  : 6 channels
    Channel layout              : C L R Ls Rs LFE
    Sampling rate               : 48.0 kHz
    Frame rate                  : 93.750 FPS (512 SPF)
    Bit depth                   : 24 bits
    Compression mode            : Lossless
    Stream size                 : 2.73 GiB (10%)
    Language                    : English
    Default                     : No
    Forced                      : No

    Audio #2
    ID                          : 3
    Format                      : AC-3
    Format/Info                 : Audio Coding 3
    Commercial name             : Dolby Digital
    Codec ID                    : A_AC3
    Duration                    : 1 h 40 min
    Bit rate mode               : Constant
    Bit rate                    : 224 kb/s
    Channel(s)                  : 2 channels
    Channel layout              : L R
    Sampling rate               : 48.0 kHz
    Frame rate                  : 31.250 FPS (1536 SPF)
    Compression mode            : Lossy
    Stream size                 : 162 MiB (1%)
    Language                    : Spanish
    Service kind                : Complete Main
    Default                     : Yes
    Forced                      : No

    Text #1
    ID                          : 4
    Format                      : PGS
    Muxing mode                 : zlib
    Codec ID                    : S_HDMV/PGS
    Codec ID/Info               : Picture based subtitle format used on BDs/HD-DVDs
    Duration                    : 1 h 35 min
    Bit rate                    : 65.9 kb/s
    Count of elements           : 3414
    Stream size                 : 45.3 MiB (0%)
    Language                    : Spanish
    Default                     : No
    Forced                      : No

    Text #2
    ID                          : 5
    Format                      : PGS
    Muxing mode                 : zlib
    Codec ID                    : S_HDMV/PGS
    Codec ID/Info               : Picture based subtitle format used on BDs/HD-DVDs
    Duration                    : 44 min 12 s
    Bit rate                    : 298 b/s
    Count of elements           : 8
    Stream size                 : 96.7 KiB (0%)
    Language                    : Spanish
    Default                     : No
    Forced                      : No

    Menu
    00:00:00.000                : en:Chapter 1
    00:07:03.506                : en:Chapter 2
    00:16:59.685                : en:Chapter 3
    00:25:00.874                : en:Chapter 4
    00:31:44.569                : en:Chapter 5
    00:52:38.822                : en:Chapter 6
    00:58:20.497                : en:Chapter 7
    01:10:50.663                : en:Chapter 8
    01:14:38.599                : en:Chapter 9
    01:22:00.999                : en:Chapter 10
    01:24:36.821                : en:Chapter 11
    01:33:05.329                : en:Chapter 12

  • Peso: 27.4 GiB

Sinopsis

La desbordante alegría de las fiestas de Nochebuena va a hacer que Frank Cross sufra unas visiones fantasmagóricas en esta divertida sátira de “Un Cuento de Navidad” de Charles Dickens. Cross, que ha hecho una carrera meteórica desde lo más recóndito del departamento de envíos de una cadena de TV hasta la presidencia, es tacaño, desagradable, ingrato, implacable y con un cruel sentido del humor, cualidades idóneas para un miserable de hoy en día. Antes de que la noche termine, será visitado por un desconcertante taxista neoyorquino del pasado, un hada del presente un tanto estrafalaria y, finalmente, un sádico, enorme y descabezado mensajero del futuro.

Ficha técnica

Video trailer de la película

Enlaces de descarga

Rip de Bluray

Descargar Scrooged (1988) REMUX 1080p Latino – CMHDD


Aportes de DPeliculasHDmega la pass es:dpeliculashdmega.org Aportes de CinemaniaHD la pass es:cinemaniahdd.com
Guardado en : Comedia , Drama , Fantasía

Películas relacionadas

descargar Scrooged (1988) REMUX 1080p Latino – CMHDD Full 1080p 1080p gratis, Scrooged (1988) REMUX 1080p Latino – CMHDD Full 1080p mega 1 link, Scrooged (1988) REMUX 1080p Latino – CMHDD Full 1080p pelicula completa, descargar Scrooged (1988) REMUX 1080p Latino – CMHDD Full 1080p gratis en mega.

Scrooged (1988) REMUX 1080p Latino – CMHDD pelicula full hd, Scrooged (1988) REMUX 1080p Latino – CMHDD mega latino, Scrooged (1988) REMUX 1080p Latino – CMHDD 4k latino, Scrooged (1988) REMUX 1080p Latino – CMHDD pelicula completa, Scrooged (1988) REMUX 1080p Latino – CMHDD descargar gratis, descargar Scrooged (1988) REMUX 1080p Latino – CMHDD pelicula latino, Scrooged (1988) REMUX 1080p Latino – CMHDD 1 link mega, Scrooged (1988) REMUX 1080p Latino – CMHDD 1 link google drive, Scrooged (1988) REMUX 1080p Latino – CMHDD hd 1080p latino.
Comentarios 0