×

¿Problemas para descargar con Mozilla, EDGE? Deshabilita la opción "Abrir vinculos en una pestaña nueva" tal como lo muestra ésta imagen.

Scream VI (2023) REMUX 1080p Latino

344 vistas

Información de Scream VI (2023) REMUX 1080p Latino

Datos de la película

  • Calidad: Full 1080p
  • Audio: Se especifica abajo de la Sinopsis
  • Subtitulos: Español Latino PGS - Ingles PGS
  • Resolución: 1920x1080p
  • Formato: MKV
  • Codec: H.264
  • Encoder: Melkor
  • Mediainfo: Clic para Mostrar Datos Ver
  • Scream VI (2023) REMUX 1080p Latino.mkv
    Format                      : Matroska
    Format version              : Version 4
    File size                   : 28.8 GiB
    Duration                    : 2 h 2 min
    Overall bit rate mode       : Variable
    Overall bit rate            : 33.7 Mb/s
    Movie name                  : Scream VI (2023) CinemaniaHDD.Net
    Encoded date                : UTC 2023-07-08 03:25:22
    Writing application         : mkvmerge v56.1.0 ('My Friend') 64-bit
    Writing library             : libebml v1.4.2 + libmatroska v1.6.4
    Attachments                 : CINEMANIAHD.png
    Site                        : CinemaniaHDD.Net
    Uploader                    : Melkor

    Video
    ID                          : 1
    ID in the original source m : 4113 (0x1011)
    Format                      : AVC
    Format/Info                 : Advanced Video Codec
    Format profile              : High@L4.1
    Format settings             : CABAC / 4 Ref Frames
    Format settings, CABAC      : Yes
    Format settings, Reference  : 4 frames
    Codec ID                    : V_MPEG4/ISO/AVC
    Duration                    : 2 h 2 min
    Bit rate mode               : Variable
    Bit rate                    : 28.4 Mb/s
    Maximum bit rate            : 31.3 Mb/s
    Width                       : 1 920 pixels
    Height                      : 1 080 pixels
    Display aspect ratio        : 16:9
    Frame rate mode             : Constant
    Frame rate                  : 23.976 (24000/1001) FPS
    Color space                 : YUV
    Chroma subsampling          : 4:2:0
    Bit depth                   : 8 bits
    Scan type                   : Progressive
    Bits/(Pixel*Frame)          : 0.571
    Stream size                 : 24.3 GiB (84%)
    Title                       : REMUX HD1080p [CinemaniaHDD]
    Default                     : Yes
    Forced                      : Yes
    Original source medium      : Blu-ray

    Audio #1
    ID                          : 2
    Format                      : AC-3
    Format/Info                 : Audio Coding 3
    Commercial name             : Dolby Digital
    Codec ID                    : A_AC3
    Duration                    : 2 h 2 min
    Bit rate mode               : Constant
    Bit rate                    : 640 kb/s
    Channel(s)                  : 6 channels
    Channel layout              : L R C LFE Ls Rs
    Sampling rate               : 48.0 kHz
    Frame rate                  : 31.250 FPS (1536 SPF)
    Compression mode            : Lossy
    Stream size                 : 561 MiB (2%)
    Title                       : Español Latino [CinemaniaHDD]
    Language                    : Spanish
    Service kind                : Complete Main
    Default                     : Yes
    Forced                      : Yes

    Audio #2
    ID                          : 3
    ID in the original source m : 4352 (0x1100)
    Format                      : MLP FBA 16-ch
    Format/Info                 : Meridian Lossless Packing FBA with 16-channel presentation
    Commercial name             : Dolby TrueHD with Dolby Atmos
    Codec ID                    : A_TRUEHD
    Duration                    : 2 h 2 min
    Bit rate mode               : Variable
    Bit rate                    : 3 923 kb/s
    Maximum bit rate            : 6 912 kb/s
    Channel(s)                  : 8 channels
    Channel layout              : L R C LFE Ls Rs Lb Rb
    Sampling rate               : 48.0 kHz
    Frame rate                  : 1 200.000 FPS (40 SPF)
    Compression mode            : Lossless
    Stream size                 : 3.36 GiB (12%)
    Title                       : Ingles [CinemaniaHDD]
    Language                    : English
    Default                     : No
    Forced                      : No
    Original source medium      : Blu-ray
    Number of dynamic objects   : 11
    Bed channel count           : 1 channel
    Bed channel configuration   : LFE

    Audio #3
    ID                          : 4
    ID in the original source m : 4352 (0x1100)
    Format                      : AC-3
    Format/Info                 : Audio Coding 3
    Commercial name             : Dolby Digital
    Format settings             : Dolby Surround EX
    Codec ID                    : A_AC3
    Duration                    : 2 h 2 min
    Bit rate mode               : Constant
    Bit rate                    : 640 kb/s
    Channel(s)                  : 6 channels
    Channel layout              : L R C LFE Ls Rs
    Sampling rate               : 48.0 kHz
    Frame rate                  : 31.250 FPS (1536 SPF)
    Compression mode            : Lossy
    Stream size                 : 561 MiB (2%)
    Title                       : Ingles AC3 [CinemaniaHDD]
    Language                    : English
    Service kind                : Complete Main
    Default                     : No
    Forced                      : No
    Original source medium      : Blu-ray

    Text #1
    ID                          : 5
    Format                      : PGS
    Muxing mode                 : zlib
    Codec ID                    : S_HDMV/PGS
    Codec ID/Info               : Picture based subtitle format used on BDs/HD-DVDs
    Duration                    : 2 h 1 min
    Bit rate                    : 490 b/s
    Count of elements           : 52
    Stream size                 : 435 KiB (0%)
    Title                       : Forzados-PGS [CinemaniaHDD]
    Language                    : Spanish
    Default                     : No
    Forced                      : No

    Text #2
    ID                          : 6
    ID in the original source m : 4612 (0x1204)
    Format                      : PGS
    Muxing mode                 : zlib
    Codec ID                    : S_HDMV/PGS
    Codec ID/Info               : Picture based subtitle format used on BDs/HD-DVDs
    Duration                    : 2 h 1 min
    Bit rate                    : 37.6 kb/s
    Count of elements           : 3266
    Stream size                 : 32.7 MiB (0%)
    Title                       : Español-PGS [CinemaniaHDD]
    Language                    : Spanish
    Default                     : No
    Forced                      : No
    Original source medium      : Blu-ray

    Text #3
    ID                          : 7
    ID in the original source m : 4608 (0x1200)
    Format                      : PGS
    Muxing mode                 : zlib
    Codec ID                    : S_HDMV/PGS
    Codec ID/Info               : Picture based subtitle format used on BDs/HD-DVDs
    Duration                    : 2 h 1 min
    Bit rate                    : 40.8 kb/s
    Count of elements           : 3316
    Stream size                 : 35.5 MiB (0%)
    Title                       : Ingles-PGS [CinemaniaHDD]
    Language                    : English
    Default                     : No
    Forced                      : No
    Original source medium      : Blu-ray

    Text #4
    ID                          : 8
    Format                      : UTF-8
    Codec ID                    : S_TEXT/UTF8
    Codec ID/Info               : UTF-8 Plain Text
    Duration                    : 1 h 50 min
    Bit rate                    : 0 b/s
    Count of elements           : 25
    Stream size                 : 529 Bytes (0%)
    Title                       : Forzados-SRT [CinemaniaHDD]
    Language                    : Spanish
    Default                     : Yes
    Forced                      : Yes

    Text #5
    ID                          : 9
    Format                      : UTF-8
    Codec ID                    : S_TEXT/UTF8
    Codec ID/Info               : UTF-8 Plain Text
    Duration                    : 2 h 1 min
    Bit rate                    : 57 b/s
    Count of elements           : 1633
    Stream size                 : 50.9 KiB (0%)
    Title                       : Español-SRT [CinemaniaHDD]
    Language                    : Spanish
    Default                     : No
    Forced                      : No

    Menu
    00:00:00.000                : Chapter 01
    00:07:47.925                : Chapter 02
    00:13:08.788                : Chapter 03
    00:19:13.068                : Chapter 04
    00:28:12.732                : Chapter 05
    00:36:32.190                : Chapter 06
    00:43:21.599                : Chapter 07
    00:49:38.767                : Chapter 08
    01:00:17.447                : Chapter 09
    01:11:12.685                : Chapter 10
    01:21:31.761                : Chapter 11
    01:24:06.583                : Chapter 12
    01:31:18.306                : Chapter 13
    01:35:12.206                : Chapter 14
    01:48:29.794                : Chapter 15
    01:56:24.143                : Chapter 16

  • Peso: 28.8 GiB

Sinopsis

Descargar Scream VI (2023) REMUX 1080p Latino. Sam, Tara, Mindy y Chad quieren tener una vida completamente normal, por ello, después de la masacre final de Ghostface en Woodsboro, deciden mudarse a Nueva York. Todos ellos quieren abandonar esas horribles vivencias que sufrieron en su pequeño pueblo. Sin embargo, no pueden escapar tan fácilmente de sus problemas y les volverá a perseguir, el ya conocido, asesino con una máscara de fantasma. Lo comienzan a ver en el metro, en el supermercado, en medio de la gran ciudad. Sam, Tara, Mindy y Chad no están dispuestos a rendirse y se preparan para acabar con él y volver a vivir en tranquilidad.

Audio Español Latino AC3 5.1 BD – TrueHD 7.1 & AC3 5.1 BD
RESUBIDA

Ficha técnica

Video trailer de la película

Enlaces de descarga

Rip de Bluray

Descargar Scream VI (2023) REMUX 1080p Latino




Aportes de DPeliculasHDmega la pass es:dpeliculashdmega.org Aportes de CinemaniaHD la pass es:cinemaniahdd.com Aportes recientes:cinemaniahdd.net
Guardado en : Misterio , Remux , Suspenso , Terror
Etiquetado en :

Películas relacionadas

descargar Scream VI (2023) REMUX 1080p Latino Full 1080p 1080p gratis, Scream VI (2023) REMUX 1080p Latino Full 1080p mega 1 link, Scream VI (2023) REMUX 1080p Latino Full 1080p pelicula completa, descargar Scream VI (2023) REMUX 1080p Latino Full 1080p gratis en mega.

Scream VI (2023) REMUX 1080p Latino pelicula full hd, Scream VI (2023) REMUX 1080p Latino mega latino, Scream VI (2023) REMUX 1080p Latino 4k latino, Scream VI (2023) REMUX 1080p Latino pelicula completa, Scream VI (2023) REMUX 1080p Latino descargar gratis, descargar Scream VI (2023) REMUX 1080p Latino pelicula latino, Scream VI (2023) REMUX 1080p Latino 1 link mega, Scream VI (2023) REMUX 1080p Latino 1 link google drive, Scream VI (2023) REMUX 1080p Latino hd 1080p latino.
Comentarios 0