×

¿Problemas para descargar con Mozilla, EDGE? Deshabilita la opción "Abrir vinculos en una pestaña nueva" tal como lo muestra ésta imagen.

Scream VI (2023) PLACEBO Full HD 1080p Latino

321 vistas

Información de Scream VI (2023) PLACEBO Full HD 1080p Latino

Datos de la película

  • Calidad: Full 1080p
  • Audio: Español Latino AC3 5.1 BLURAY - Ingles DTS 5.1 BLURAY
  • Subtitulos: Español Latino PGS - Ingles PGS
  • Resolución: 1920x1080p
  • Formato: MKV
  • Codec: H.264
  • Encoder: Melkor
  • Mediainfo: Clic para Mostrar Datos Ver
  • Scream VI (2023) PLACEBO 1080p Latino.mkv
    Format                      : Matroska
    Format version              : Version 4
    File size                   : 5.78 GiB
    Duration                    : 2 h 2 min
    Overall bit rate            : 6 758 kb/s
    Movie name                  : Scream VI (2023) CinemaniaHDD.Net
    Encoded date                : UTC 2023-07-08 18:31:44
    Writing application         : mkvmerge v56.1.0 ('My Friend') 64-bit
    Writing library             : libebml v1.4.2 + libmatroska v1.6.4
    Attachments                 : CINEMANIAHD.png
    Site                        : CinemaniaHDD.Net
    Uploader                    : Melkor

    Video
    ID                          : 1
    Format                      : AVC
    Format/Info                 : Advanced Video Codec
    Format profile              : High@L4.1
    Format settings             : CABAC / 4 Ref Frames
    Format settings, CABAC      : Yes
    Format settings, Reference  : 4 frames
    Codec ID                    : V_MPEG4/ISO/AVC
    Duration                    : 2 h 2 min
    Bit rate                    : 4 566 kb/s
    Width                       : 1 920 pixels
    Height                      : 1 080 pixels
    Display aspect ratio        : 16:9
    Frame rate mode             : Constant
    Frame rate                  : 23.976 (24000/1001) FPS
    Color space                 : YUV
    Chroma subsampling          : 4:2:0
    Bit depth                   : 8 bits
    Scan type                   : Progressive
    Bits/(Pixel*Frame)          : 0.092
    Stream size                 : 3.91 GiB (68%)
    Writing library             : x264 core 163 r3059 b684ebe0
    Encoding settings           : cabac=1 / ref=4 / deblock=1:0:0 / analyse=0x3:0x133 / me=tesa / subme=11 / psy=1 / psy_rd=1.00:0.00 / mixed_ref=1 / me_range=24 / chroma_me=1 / trellis=2 / 8x8dct=1 / cqm=0 / deadzone=21,11 / fast_pskip=0 / chroma_qp_offset=-2 / threads=24 / lookahead_threads=6 / sliced_threads=0 / nr=0 / decimate=1 / interlaced=0 / bluray_compat=0 / constrained_intra=0 / bframes=16 / b_pyramid=2 / b_adapt=2 / b_bias=0 / direct=3 / weightb=1 / open_gop=0 / weightp=2 / keyint=240 / keyint_min=24 / scenecut=40 / intra_refresh=0 / rc_lookahead=60 / rc=crf / mbtree=1 / crf=19.0 / qcomp=0.60 / qpmin=0 / qpmax=69 / qpstep=4 / vbv_maxrate=62500 / vbv_bufsize=78125 / crf_max=0.0 / nal_hrd=none / filler=0 / ip_ratio=1.40 / aq=1:1.00
    Default                     : Yes
    Forced                      : No
    Color range                 : Limited
    Color primaries             : BT.709
    Transfer characteristics    : BT.709
    Matrix coefficients         : BT.709

    Audio #1
    ID                          : 2
    Format                      : AC-3
    Format/Info                 : Audio Coding 3
    Commercial name             : Dolby Digital
    Codec ID                    : A_AC3
    Duration                    : 2 h 2 min
    Bit rate mode               : Constant
    Bit rate                    : 640 kb/s
    Channel(s)                  : 6 channels
    Channel layout              : L R C LFE Ls Rs
    Sampling rate               : 48.0 kHz
    Frame rate                  : 31.250 FPS (1536 SPF)
    Compression mode            : Lossy
    Stream size                 : 561 MiB (9%)
    Title                       : Español Latino [CinemaniaHDD]
    Language                    : Spanish
    Service kind                : Complete Main
    Default                     : Yes
    Forced                      : Yes

    Audio #2
    ID                          : 3
    Format                      : DTS
    Format/Info                 : Digital Theater Systems
    Codec ID                    : A_DTS
    Duration                    : 2 h 2 min
    Bit rate mode               : Constant
    Bit rate                    : 1 509 kb/s
    Channel(s)                  : 6 channels
    Channel layout              : C L R Ls Rs LFE
    Sampling rate               : 48.0 kHz
    Frame rate                  : 93.750 FPS (512 SPF)
    Bit depth                   : 16 bits
    Compression mode            : Lossy
    Stream size                 : 1.29 GiB (22%)
    Title                       : Ingles [CinemaniaHDD]
    Language                    : English
    Default                     : No
    Forced                      : No

    Text #1
    ID                          : 4
    Format                      : PGS
    Muxing mode                 : zlib
    Codec ID                    : S_HDMV/PGS
    Codec ID/Info               : Picture based subtitle format used on BDs/HD-DVDs
    Duration                    : 2 h 1 min
    Bit rate                    : 490 b/s
    Count of elements           : 52
    Stream size                 : 435 KiB (0%)
    Title                       : Forzados-PGS [CinemaniaHDD]
    Language                    : Spanish
    Default                     : No
    Forced                      : No

    Text #2
    ID                          : 5
    ID in the original source m : 4612 (0x1204)
    Format                      : PGS
    Muxing mode                 : zlib
    Codec ID                    : S_HDMV/PGS
    Codec ID/Info               : Picture based subtitle format used on BDs/HD-DVDs
    Duration                    : 2 h 1 min
    Bit rate                    : 37.6 kb/s
    Count of elements           : 3266
    Stream size                 : 32.7 MiB (1%)
    Title                       : Español-PGS [CinemaniaHDD]
    Language                    : Spanish
    Default                     : No
    Forced                      : No
    Original source medium      : Blu-ray

    Text #3
    ID                          : 6
    ID in the original source m : 4608 (0x1200)
    Format                      : PGS
    Muxing mode                 : zlib
    Codec ID                    : S_HDMV/PGS
    Codec ID/Info               : Picture based subtitle format used on BDs/HD-DVDs
    Duration                    : 2 h 1 min
    Bit rate                    : 40.8 kb/s
    Count of elements           : 3316
    Stream size                 : 35.5 MiB (1%)
    Title                       : Ingles-PGS [CinemaniaHDD]
    Language                    : English
    Default                     : No
    Forced                      : No
    Original source medium      : Blu-ray

    Text #4
    ID                          : 7
    Format                      : UTF-8
    Codec ID                    : S_TEXT/UTF8
    Codec ID/Info               : UTF-8 Plain Text
    Duration                    : 1 h 50 min
    Bit rate                    : 0 b/s
    Count of elements           : 25
    Stream size                 : 529 Bytes (0%)
    Title                       : Forzados-SRT [CinemaniaHDD]
    Language                    : Spanish
    Default                     : Yes
    Forced                      : Yes

    Text #5
    ID                          : 8
    Format                      : UTF-8
    Codec ID                    : S_TEXT/UTF8
    Codec ID/Info               : UTF-8 Plain Text
    Duration                    : 2 h 1 min
    Bit rate                    : 57 b/s
    Count of elements           : 1633
    Stream size                 : 50.9 KiB (0%)
    Title                       : Español-SRT [CinemaniaHDD]
    Language                    : Spanish
    Default                     : No
    Forced                      : No

    Menu
    00:00:00.000                : Chapter 01
    00:07:47.925                : Chapter 02
    00:13:08.788                : Chapter 03
    00:19:13.068                : Chapter 04
    00:28:12.732                : Chapter 05
    00:36:32.190                : Chapter 06
    00:43:21.599                : Chapter 07
    00:49:38.767                : Chapter 08
    01:00:17.447                : Chapter 09
    01:11:12.685                : Chapter 10
    01:21:31.761                : Chapter 11
    01:24:06.583                : Chapter 12
    01:31:18.306                : Chapter 13
    01:35:12.206                : Chapter 14
    01:48:29.794                : Chapter 15
    01:56:24.143                : Chapter 16

  • Peso: 5.78 GiB

Sinopsis

Descargar Scream VI (2023) PLACEBO Full HD 1080p Latino. Sam, Tara, Mindy y Chad quieren tener una vida completamente normal, por ello, después de la masacre final de Ghostface en Woodsboro, deciden mudarse a Nueva York. Todos ellos quieren abandonar esas horribles vivencias que sufrieron en su pequeño pueblo. Sin embargo, no pueden escapar tan fácilmente de sus problemas y les volverá a perseguir, el ya conocido, asesino con una máscara de fantasma. Lo comienzan a ver en el metro, en el supermercado, en medio de la gran ciudad. Sam, Tara, Mindy y Chad no están dispuestos a rendirse y se preparan para acabar con él y volver a vivir en tranquilidad.

RESUBIDA

Ficha técnica

Video trailer de la película

Enlaces de descarga

Rip de Bluray

Descargar Scream VI (2023) PLACEBO Full HD 1080p Latino




Aportes de DPeliculasHDmega la pass es:dpeliculashdmega.org Aportes de CinemaniaHD la pass es:cinemaniahdd.com Aportes recientes:cinemaniahdd.net
Etiquetado en :

Películas relacionadas

  • 57 Seconds (2023) AMZN WEB-DL 1080p Latino

    57 Seconds (2023) AMZN WEB-DL 1080p Latino

    2023
    57 Seconds (2023) AMZN WEB-DL 1080p Latino

    1h 39m 2023

    Cuando un blogger de tecnología consigue una entrevista con un gurú de la tecnología y detiene un...

    Director: Taylor DiMarco

    Género: Acción

    Actores: Valerie E. Lamb

  • The Bodyguard (1992) Full HD 1080p Latino-CMHDD

    The Bodyguard (1992) Full HD 1080p Latino-CMHDD

    1992
    The Bodyguard (1992) Full HD 1080p Latino-CMHDD

    2h 9m 1992

    Descargar The Bodyguard (1992) Full HD 1080p Latino-CMHDD. Una cantante famosa que recibe constantes...

    Director: Mick Jackson

    Género: Acción

    Actores: Whitney Houston

  • One Day (2011) Full HD 1080p Latino-CMHDD

    One Day (2011) Full HD 1080p Latino-CMHDD

    2011
    One Day (2011) Full HD 1080p Latino-CMHDD

    1h 43m 2011

    Descargar One Day (2011) Full HD 1080p Latino-CMHDD. Emma y Dexter se conocen el día de su graduación...

    Director: Maj-Britt La Cour

    Género: Drama

    Actores: Ukweli Roach

descargar Scream VI (2023) PLACEBO Full HD 1080p Latino Full 1080p 1080p gratis, Scream VI (2023) PLACEBO Full HD 1080p Latino Full 1080p mega 1 link, Scream VI (2023) PLACEBO Full HD 1080p Latino Full 1080p pelicula completa, descargar Scream VI (2023) PLACEBO Full HD 1080p Latino Full 1080p gratis en mega.

Scream VI (2023) PLACEBO Full HD 1080p Latino pelicula full hd, Scream VI (2023) PLACEBO Full HD 1080p Latino mega latino, Scream VI (2023) PLACEBO Full HD 1080p Latino 4k latino, Scream VI (2023) PLACEBO Full HD 1080p Latino pelicula completa, Scream VI (2023) PLACEBO Full HD 1080p Latino descargar gratis, descargar Scream VI (2023) PLACEBO Full HD 1080p Latino pelicula latino, Scream VI (2023) PLACEBO Full HD 1080p Latino 1 link mega, Scream VI (2023) PLACEBO Full HD 1080p Latino 1 link google drive, Scream VI (2023) PLACEBO Full HD 1080p Latino hd 1080p latino.
Comentarios 0