×

¿Problemas para descargar con Mozilla, EDGE? Deshabilita la opción "Abrir vinculos en una pestaña nueva" tal como lo muestra ésta imagen.

Scream 4 (2011) REMUX 1080p Latino – CMHDD

770 vistas

Información de Scream 4 (2011) REMUX 1080p Latino – CMHDD

Datos de la película

  • Calidad:
  • Audio: Español Latino AC3 5.1 BLURAY - Ingles DTS 5.1 BLURAY
  • Subtitulos: Español Latino SRT- FORZADOS SRT
  • Resolución: 1920x1080p
  • Formato: MKV
  • Codec: H.264
  • Encoder: Dracays
  • Mediainfo: Clic para Mostrar Datos Ver
  • Format                      : Matroska
    Format version              : Version 4
    File size                   : 24.2 GiB
    Duration                    : 1 h 50 min
    Overall bit rate mode       : Variable
    Overall bit rate            : 31.3 Mb/s
    Movie name                  : Scream 4 (2011) REMUX 1080p Latino - CMHDD
    Encoded date                : UTC 2020-11-07 22:29:51
    Writing application         : mkvmerge v51.0.0 ('I Wish') 64-bit
    Writing library             : libebml v1.4.0 + libmatroska v1.6.2

    Video
    ID                          : 1
    Format                      : AVC
    Format/Info                 : Advanced Video Codec
    Format profile              : High@L4.1
    Format settings             : CABAC / 4 Ref Frames
    Format settings, CABAC      : Yes
    Format settings, Reference  : 4 frames
    Format settings, GOP        : M=3, N=12
    Codec ID                    : V_MPEG4/ISO/AVC
    Duration                    : 1 h 50 min
    Bit rate mode               : Variable
    Bit rate                    : 28.0 Mb/s
    Maximum bit rate            : 33.0 Mb/s
    Width                       : 1 920 pixels
    Height                      : 1 080 pixels
    Display aspect ratio        : 16:9
    Frame rate mode             : Constant
    Frame rate                  : 24.000 FPS
    Color space                 : YUV
    Chroma subsampling          : 4:2:0
    Bit depth                   : 8 bits
    Scan type                   : Progressive
    Bits/(Pixel*Frame)          : 0.562
    Stream size                 : 21.6 GiB (89%)
    Default                     : Yes
    Forced                      : No
    Color range                 : Limited
    Color primaries             : BT.709
    Transfer characteristics    : BT.709
    Matrix coefficients         : BT.709

    Audio #1
    ID                          : 2
    Format                      : AC-3
    Format/Info                 : Audio Coding 3
    Commercial name             : Dolby Digital
    Codec ID                    : A_AC3
    Duration                    : 1 h 50 min
    Bit rate mode               : Constant
    Bit rate                    : 640 kb/s
    Channel(s)                  : 6 channels
    Channel layout              : L R C LFE Ls Rs
    Sampling rate               : 48.0 kHz
    Frame rate                  : 31.250 FPS (1536 SPF)
    Compression mode            : Lossy
    Delay relative to video     : 7 s 500 ms
    Stream size                 : 507 MiB (2%)
    Title                       : Doblaje Mex
    Language                    : Spanish
    Service kind                : Complete Main
    Default                     : Yes
    Forced                      : No

    Audio #2
    ID                          : 3
    Format                      : AC-3
    Format/Info                 : Audio Coding 3
    Commercial name             : Dolby Digital
    Codec ID                    : A_AC3
    Duration                    : 1 h 50 min
    Bit rate mode               : Constant
    Bit rate                    : 448 kb/s
    Channel(s)                  : 2 channels
    Channel layout              : L R
    Sampling rate               : 48.0 kHz
    Frame rate                  : 31.250 FPS (1536 SPF)
    Compression mode            : Lossy
    Delay relative to video     : 7 s 500 ms
    Stream size                 : 355 MiB (1%)
    Title                       : Doblaje Arg
    Language                    : Spanish
    Service kind                : Complete Main
    Default                     : No
    Forced                      : No

    Audio #3
    ID                          : 4
    Format                      : DTS XLL
    Format/Info                 : Digital Theater Systems
    Commercial name             : DTS-HD Master Audio
    Codec ID                    : A_DTS
    Duration                    : 1 h 50 min
    Bit rate mode               : Variable
    Bit rate                    : 2 263 kb/s
    Channel(s)                  : 6 channels
    Channel layout              : C L R Ls Rs LFE
    Sampling rate               : 48.0 kHz
    Frame rate                  : 93.750 FPS (512 SPF)
    Bit depth                   : 16 bits
    Compression mode            : Lossless
    Stream size                 : 1.75 GiB (7%)
    Language                    : English
    Default                     : No
    Forced                      : No

    Text
    ID                          : 5
    Format                      : UTF-8
    Codec ID                    : S_TEXT/UTF8
    Codec ID/Info               : UTF-8 Plain Text
    Duration                    : 1 h 45 min
    Bit rate                    : 61 b/s
    Count of elements           : 1504
    Stream size                 : 47.8 KiB (0%)
    Language                    : Spanish
    Default                     : No
    Forced                      : No

  • Peso: 24.2 GiB

Sinopsis

Sidney Prescott ha logrado olvidar los asesinatos cometidos en Woodsboro. Diez años después, convertida en una escritora de éxito, vuelve a su pueblo natal con motivo de la gira de promoción de su nuevo libro. Pero su regreso irá acompañado de una nueva ola de crímenes perpetrados por un viejo conocido: Ghostface.

Ficha técnica

  • Titulo original: Scream 4
  • Fecha de lanzamiento: 11-04-2011 (United States of America)
  • Director: Wes Craven
  • Género: Misterio, Terror

Video trailer de la película

Enlaces de descarga

Rip de Bluray

Descargar Scream 4 (2011) REMUX 1080p Latino – CMHDD


Aportes de DPeliculasHDmega la pass es:dpeliculashdmega.org Aportes de CinemaniaHD la pass es:cinemaniahdd.com
Guardado en : Misterio , Terror

Películas relacionadas

  • Emily la criminal (2022) HD 1080p Latino

    Emily la criminal (2022) HD 1080p Latino

    2022
    Emily la criminal (2022) HD 1080p Latino

    1h 37m 2022

    Descargar Emily la criminal (2022) HD 1080p Latino. Emily, que tiene una deuda estudiantil y está excluida...

    Director: John Patton Ford

    Género: Crimen

    Actores: Theo Rossi

  • Emily la criminal (2022) REMUX 1080p Latino

    Emily la criminal (2022) REMUX 1080p Latino

    2022
    Emily la criminal (2022) REMUX 1080p Latino

    1h 37m 2022

    Descargar Emily la criminal (2022) REMUX 1080p Latino. Emily, que tiene una deuda estudiantil y está...

    Director: John Patton Ford

    Género: Crimen

    Actores: Theo Rossi

  • Resurrección (2022) AMZN WEB-DL 1080p Latino

    Resurrección (2022) AMZN WEB-DL 1080p Latino

    2022
    Resurrección (2022) AMZN WEB-DL 1080p Latino

    1h 43m 2022

    Descargar Resurrección (2022) AMZN Web-DL 1080p Latino. La vida cuidadosamente construida de una mujer...

    Director: Michael Kefeyalew

    Género: Drama

    Actores: Zarra Kaahn

descargar Scream 4 (2011) REMUX 1080p Latino – CMHDD 1080p gratis, Scream 4 (2011) REMUX 1080p Latino – CMHDD mega 1 link, Scream 4 (2011) REMUX 1080p Latino – CMHDD pelicula completa, descargar Scream 4 (2011) REMUX 1080p Latino – CMHDD gratis en mega.

Scream 4 (2011) REMUX 1080p Latino – CMHDD pelicula full hd, Scream 4 (2011) REMUX 1080p Latino – CMHDD mega latino, Scream 4 (2011) REMUX 1080p Latino – CMHDD 4k latino, Scream 4 (2011) REMUX 1080p Latino – CMHDD pelicula completa, Scream 4 (2011) REMUX 1080p Latino – CMHDD descargar gratis, descargar Scream 4 (2011) REMUX 1080p Latino – CMHDD pelicula latino, Scream 4 (2011) REMUX 1080p Latino – CMHDD 1 link mega, Scream 4 (2011) REMUX 1080p Latino – CMHDD 1 link google drive, Scream 4 (2011) REMUX 1080p Latino – CMHDD hd 1080p latino.
Comentarios 0