×

¿Problemas para descargar con Mozilla, EDGE? Deshabilita la opción "Abrir vinculos en una pestaña nueva" tal como lo muestra ésta imagen.

Scream 3 (2000) REMUX 1080p Latino

1.177 vistas

Información de Scream 3 (2000) REMUX 1080p Latino

Datos de la película

  • Calidad: Full 1080p
  • Audio: Español Latino AC3 2.0 Netflix - Ingles DTS 5.1 BURAY
  • Subtitulos: Español Latino SRT- FORZADOS SRT
  • Resolución: 1920x1080p
  • Formato: MKV
  • Codec: H.264
  • Encoder: Dracarys
  • Mediainfo: Clic para Mostrar Datos Ver
  • Format                      : Matroska
    Format version              : Version 4
    File size                   : 21.5 GiB
    Duration                    : 1 h 56 min
    Overall bit rate mode       : Variable
    Overall bit rate            : 26.5 Mb/s
    Movie name                  : Scream 3 (2000) REMUX 1080p Latino - CMHDD
    Encoded date                : UTC 2020-11-07 21:53:01
    Writing application         : mkvmerge v51.0.0 ('I Wish') 64-bit
    Writing library             : libebml v1.4.0 + libmatroska v1.6.2

    Video
    ID                          : 1
    Format                      : AVC
    Format/Info                 : Advanced Video Codec
    Format profile              : High@L4.1
    Format settings             : CABAC / 4 Ref Frames
    Format settings, CABAC      : Yes
    Format settings, Reference  : 4 frames
    Format settings, GOP        : M=3, N=24
    Codec ID                    : V_MPEG4/ISO/AVC
    Duration                    : 1 h 56 min
    Bit rate mode               : Variable
    Bit rate                    : 24.0 Mb/s
    Maximum bit rate            : 33.0 Mb/s
    Width                       : 1 920 pixels
    Height                      : 1 080 pixels
    Display aspect ratio        : 16:9
    Frame rate mode             : Constant
    Frame rate                  : 23.976 (24000/1001) FPS
    Standard                    : NTSC
    Color space                 : YUV
    Chroma subsampling          : 4:2:0
    Bit depth                   : 8 bits
    Scan type                   : Progressive
    Bits/(Pixel*Frame)          : 0.483
    Stream size                 : 19.5 GiB (91%)
    Default                     : Yes
    Forced                      : No
    Color range                 : Limited
    Color primaries             : BT.709
    Transfer characteristics    : BT.709
    Matrix coefficients         : BT.709

    Audio #1
    ID                          : 2
    Format                      : AC-3
    Format/Info                 : Audio Coding 3
    Commercial name             : Dolby Digital
    Codec ID                    : A_AC3
    Duration                    : 1 h 56 min
    Bit rate mode               : Constant
    Bit rate                    : 256 kb/s
    Channel(s)                  : 2 channels
    Channel layout              : L R
    Sampling rate               : 48.0 kHz
    Frame rate                  : 31.250 FPS (1536 SPF)
    Compression mode            : Lossy
    Delay relative to video     : 16 ms
    Stream size                 : 213 MiB (1%)
    Language                    : Spanish
    Service kind                : Complete Main
    Default                     : Yes
    Forced                      : No

    Audio #2
    ID                          : 3
    Format                      : DTS XLL
    Format/Info                 : Digital Theater Systems
    Commercial name             : DTS-HD Master Audio
    Codec ID                    : A_DTS
    Duration                    : 1 h 56 min
    Bit rate mode               : Variable
    Bit rate                    : 2 192 kb/s
    Channel(s)                  : 6 channels
    Channel layout              : C L R Ls Rs LFE
    Sampling rate               : 48.0 kHz
    Frame rate                  : 93.750 FPS (512 SPF)
    Bit depth                   : 16 bits
    Compression mode            : Lossless
    Stream size                 : 1.78 GiB (8%)
    Language                    : English
    Default                     : No
    Forced                      : No

    Text #1
    ID                          : 4
    Format                      : UTF-8
    Codec ID                    : S_TEXT/UTF8
    Codec ID/Info               : UTF-8 Plain Text
    Duration                    : 1 h 45 min
    Bit rate                    : 0 b/s
    Count of elements           : 15
    Stream size                 : 348 Bytes (0%)
    Title                       : Forzados
    Language                    : Spanish
    Default                     : Yes
    Forced                      : No

    Text #2
    ID                          : 5
    Format                      : UTF-8
    Codec ID                    : S_TEXT/UTF8
    Codec ID/Info               : UTF-8 Plain Text
    Duration                    : 1 h 49 min
    Bit rate                    : 61 b/s
    Count of elements           : 1529
    Stream size                 : 49.7 KiB (0%)
    Language                    : Spanish
    Default                     : No
    Forced                      : No

    Text #3
    ID                          : 6
    Format                      : PGS
    Muxing mode                 : zlib
    Codec ID                    : S_HDMV/PGS
    Codec ID/Info               : Picture based subtitle format used on BDs/HD-DVDs
    Duration                    : 1 h 49 min
    Bit rate                    : 53.1 kb/s
    Count of elements           : 2808
    Stream size                 : 41.7 MiB (0%)
    Language                    : Spanish
    Default                     : No
    Forced                      : No

  • Peso: 21.5 GiB

Sinopsis

Descargar Scream 3 (2000) REMUX 1080p Latino. Después de los terroríficos acontecimientos que tuvieron lugar en la localidad de Woodsboro, Sidney vive alejada del mundo en una casita de las montañas, intentando olvidar el pasado. Se dedica a proporcionar apoyo moral a mujeres con problemas a través del teléfono; pero, un día, alguien la llama para informarla de los asesinatos que se están produciendo durante el rodaje de «Puñaladas 3», película basada en los hechos de los que ella fue protagonista.

RESUBIDA

Ficha técnica

Video trailer de la película

Enlaces de descarga

Rip de Bluray

Descargar Scream 3 (2000) REMUX 1080p Latino


Aportes de DPeliculasHDmega la pass es:dpeliculashdmega.org Aportes de CinemaniaHD la pass es:cinemaniahdd.com Aportes recientes:cinemaniahdd.net
Guardado en : Misterio , Remux , Terror
Etiquetado en :

Películas relacionadas

  • iZombie (2016) Temporada 02 REMUX 1080p Latino

    iZombie (2016) Temporada 02 REMUX 1080p Latino

    2015
    iZombie (2016) Temporada 02 REMUX 1080p Latino

    0h 42m 2015

    Descargar iZombie (2016) Temporada 02 REMUX 1080p Latino. Gira en torno a una estudiante de medicina...

    Director: Rob Thomas

    Género: Crimen

    Actores: Rose McIver

  • iZombie (2015) Temporada 01 REMUX 1080p Latino

    iZombie (2015) Temporada 01 REMUX 1080p Latino

    2015
    iZombie (2015) Temporada 01 REMUX 1080p Latino

    0h 42m 2015

    Descargar iZombie (2015) Temporada 01 REMUX 1080p Latino. Gira en torno a una estudiante de medicina...

    Director: Rob Thomas

    Género: Crimen

    Actores: Rose McIver

  • Fear (2023) AMZN WEB-DL 1080p Latino

    Fear (2023) AMZN WEB-DL 1080p Latino

    2023
    Fear (2023) AMZN WEB-DL 1080p Latino

    1h 38m 2023

    Una escapada muy necesaria y un fin de semana de celebración se convierte en una pesadilla debido a...

    Director: Deon Taylor

    Género: Drama

    Actores: Whylip Lee

  • Good Burger 2 (2023) REMUX 1080p Latino

    Good Burger 2 (2023) REMUX 1080p Latino

    2023
    Good Burger 2 (2023) REMUX 1080p Latino

    1h 31m 2023

    Descargar Good Burger 2 (2023) REMUX 1080p Latino. Después de que su último invento falla, Ed le da...

    Director: Ross Novie

    Género: Comedia

    Actores: Zoe Saldana

descargar Scream 3 (2000) REMUX 1080p Latino Full 1080p 1080p gratis, Scream 3 (2000) REMUX 1080p Latino Full 1080p mega 1 link, Scream 3 (2000) REMUX 1080p Latino Full 1080p pelicula completa, descargar Scream 3 (2000) REMUX 1080p Latino Full 1080p gratis en mega.

Scream 3 (2000) REMUX 1080p Latino pelicula full hd, Scream 3 (2000) REMUX 1080p Latino mega latino, Scream 3 (2000) REMUX 1080p Latino 4k latino, Scream 3 (2000) REMUX 1080p Latino pelicula completa, Scream 3 (2000) REMUX 1080p Latino descargar gratis, descargar Scream 3 (2000) REMUX 1080p Latino pelicula latino, Scream 3 (2000) REMUX 1080p Latino 1 link mega, Scream 3 (2000) REMUX 1080p Latino 1 link google drive, Scream 3 (2000) REMUX 1080p Latino hd 1080p latino.
Comentarios 0