×

¿Problemas para descargar con Mozilla, EDGE? Deshabilita la opción "Abrir vinculos en una pestaña nueva" tal como lo muestra ésta imagen.

Scream (2022) REMUX 4K HDR Latino – CMHDD

295 vistas

Información de Scream (2022) REMUX 4K HDR Latino – CMHDD

Datos de la película

  • Calidad: 4K HDR
  • Audio: Español Latino AC3 5.1 BLURAY - Ingles DTS-HD Master 7.1 BLURAY
  • Subtitulos: Español Latino PGS
  • Resolución: 3840x2160p
  • Formato: MKV
  • Codec: H.264
  • Encoder: Dracarys
  • Mediainfo: Clic para Mostrar Datos Ver
  • Format                      : Matroska
    Format version              : Version 4
    File size                   : 45.9 GiB
    Duration                    : 1 h 54 min
    Overall bit rate mode       : Variable
    Overall bit rate            : 57.4 Mb/s
    Movie name                  : Scream (2022) REMUX 4K HDR Latino - CMHDD
    Encoded date                : UTC 2023-04-14 21:43:52
    Writing application         : mkvmerge v47.0.0 ('Black Flag') 64-bit
    Writing library             : libebml v1.3.10 + libmatroska v1.5.2
    Cover                       : Yes
    Attachments                 : cover.jpg

    Video
    ID                          : 1
    ID in the original source m : 4113 (0x1011)
    Format                      : HEVC
    Format/Info                 : High Efficiency Video Coding
    Format profile              : Main 10@L5.1@High
    HDR format                  : SMPTE ST 2086, HDR10 compatible
    Codec ID                    : V_MPEGH/ISO/HEVC
    Duration                    : 1 h 54 min
    Bit rate                    : 51.7 Mb/s
    Width                       : 3 840 pixels
    Height                      : 2 160 pixels
    Display aspect ratio        : 16:9
    Frame rate mode             : Constant
    Frame rate                  : 23.976 (24000/1001) FPS
    Color space                 : YUV
    Chroma subsampling          : 4:2:0 (Type 2)
    Bit depth                   : 10 bits
    Bits/(Pixel*Frame)          : 0.260
    Stream size                 : 41.3 GiB (90%)
    Default                     : Yes
    Forced                      : No
    Color range                 : Limited
    Color primaries             : BT.2020
    Transfer characteristics    : PQ
    Matrix coefficients         : BT.2020 non-constant
    Mastering display color pri : Display P3
    Mastering display luminance : min: 0.0001 cd/m2, max: 1000 cd/m2
    Maximum Content Light Level : 192 cd/m2
    Maximum Frame-Average Light : 82 cd/m2
    Original source medium      : Blu-ray

    Audio #1
    ID                          : 2
    ID in the original source m : 4352 (0x1100)
    Format                      : DTS XLL
    Format/Info                 : Digital Theater Systems
    Commercial name             : DTS-HD Master Audio
    Codec ID                    : A_DTS
    Duration                    : 1 h 54 min
    Bit rate mode               : Variable
    Bit rate                    : 4 374 kb/s
    Channel(s)                  : 8 channels
    Channel layout              : C L R LFE Lb Rb Lss Rss
    Sampling rate               : 48.0 kHz
    Frame rate                  : 93.750 FPS (512 SPF)
    Bit depth                   : 24 bits
    Compression mode            : Lossless
    Stream size                 : 3.49 GiB (8%)
    Language                    : English
    Default                     : No
    Forced                      : No
    Original source medium      : Blu-ray

    Audio #2
    ID                          : 3
    ID in the original source m : 4353 (0x1101)
    Format                      : AC-3
    Format/Info                 : Audio Coding 3
    Commercial name             : Dolby Digital
    Codec ID                    : A_AC3
    Duration                    : 1 h 54 min
    Bit rate mode               : Constant
    Bit rate                    : 640 kb/s
    Channel(s)                  : 6 channels
    Channel layout              : L R C LFE Ls Rs
    Sampling rate               : 48.0 kHz
    Frame rate                  : 31.250 FPS (1536 SPF)
    Compression mode            : Lossy
    Delay relative to video     : 23 ms
    Stream size                 : 523 MiB (1%)
    Language                    : English
    Service kind                : Complete Main
    Default                     : No
    Forced                      : No
    Original source medium      : Blu-ray

    Audio #3
    ID                          : 4
    ID in the original source m : 4356 (0x1104)
    Format                      : AC-3
    Format/Info                 : Audio Coding 3
    Commercial name             : Dolby Digital
    Codec ID                    : A_AC3
    Duration                    : 1 h 54 min
    Bit rate mode               : Constant
    Bit rate                    : 640 kb/s
    Channel(s)                  : 6 channels
    Channel layout              : L R C LFE Ls Rs
    Sampling rate               : 48.0 kHz
    Frame rate                  : 31.250 FPS (1536 SPF)
    Compression mode            : Lossy
    Delay relative to video     : 23 ms
    Stream size                 : 523 MiB (1%)
    Language                    : Spanish
    Service kind                : Complete Main
    Default                     : Yes
    Forced                      : No
    Original source medium      : Blu-ray

    Text #1
    ID                          : 5
    ID in the original source m : 4773 (0x12A5)
    Format                      : PGS
    Muxing mode                 : zlib
    Codec ID                    : S_HDMV/PGS
    Codec ID/Info               : Picture based subtitle format used on BDs/HD-DVDs
    Duration                    : 1 h 53 min
    Bit rate                    : 34.4 kb/s
    Frame rate                  : 0.445 FPS
    Count of elements           : 3027
    Stream size                 : 27.9 MiB (0%)
    Language                    : Spanish
    Default                     : No
    Forced                      : No
    Original source medium      : Blu-ray

    Text #2
    ID                          : 6
    ID in the original source m : 4785 (0x12B1)
    Format                      : PGS
    Muxing mode                 : zlib
    Codec ID                    : S_HDMV/PGS
    Codec ID/Info               : Picture based subtitle format used on BDs/HD-DVDs
    Duration                    : 1 h 54 min
    Bit rate                    : 74.4 kb/s
    Frame rate                  : 0.617 FPS
    Count of elements           : 4231
    Stream size                 : 60.8 MiB (0%)
    Language                    : Spanish
    Default                     : No
    Forced                      : No
    Original source medium      : Blu-ray

    Menu
    00:00:00.000                : en:Capítulo 01
    00:11:18.969                : en:Capítulo 02
    00:19:12.568                : en:Capítulo 03
    00:31:06.364                : en:Capítulo 04
    00:38:23.551                : en:Capítulo 05
    00:44:21.825                : en:Capítulo 06
    00:53:05.599                : en:Capítulo 07
    00:59:44.289                : en:Capítulo 08
    01:08:48.582                : en:Capítulo 09
    01:16:27.708                : en:Capítulo 10
    01:26:17.338                : en:Capítulo 11
    01:38:30.779                : en:Capítulo 12
    01:48:02.976                : en:Capítulo 13

  • Peso: 45.9 GiB

Sinopsis

Una nueva entrega de la saga de terror ‘Scream’ que seguirá a una mujer que regresa a su ciudad natal para intentar descubrir quién ha estado cometiendo una serie de crímenes atroces.

Ficha técnica

Video trailer de la película

Enlaces de descarga

Rip de Bluray

Descargar Scream (2022) REMUX 4K HDR Latino – CMHDD


Aportes de DPeliculasHDmega la pass es:dpeliculashdmega.org Aportes de CinemaniaHD la pass es:cinemaniahdd.com Aportes recientes:cinemaniahdd.net
Guardado en : Misterio , Suspenso , Terror

Películas relacionadas

descargar Scream (2022) REMUX 4K HDR Latino – CMHDD 4K HDR 1080p gratis, Scream (2022) REMUX 4K HDR Latino – CMHDD 4K HDR mega 1 link, Scream (2022) REMUX 4K HDR Latino – CMHDD 4K HDR pelicula completa, descargar Scream (2022) REMUX 4K HDR Latino – CMHDD 4K HDR gratis en mega.

Scream (2022) REMUX 4K HDR Latino – CMHDD pelicula full hd, Scream (2022) REMUX 4K HDR Latino – CMHDD mega latino, Scream (2022) REMUX 4K HDR Latino – CMHDD 4k latino, Scream (2022) REMUX 4K HDR Latino – CMHDD pelicula completa, Scream (2022) REMUX 4K HDR Latino – CMHDD descargar gratis, descargar Scream (2022) REMUX 4K HDR Latino – CMHDD pelicula latino, Scream (2022) REMUX 4K HDR Latino – CMHDD 1 link mega, Scream (2022) REMUX 4K HDR Latino – CMHDD 1 link google drive, Scream (2022) REMUX 4K HDR Latino – CMHDD hd 1080p latino.
Comentarios 0