×

¿Problemas para descargar con Mozilla, EDGE? Deshabilita la opción "Abrir vinculos en una pestaña nueva" tal como lo muestra ésta imagen.

Scream (2022) AMZN WEB-DL 1080p Latino

934 vistas

Información de Scream (2022) AMZN WEB-DL 1080p Latino

Datos de la película

  • Calidad: 1080p
  • Audio: Español Latino AC3 5.1 WEB-DL - Ingles AC3 5.1 WEB-DL
  • Subtitulos: Español Latino SRT
  • Resolución: 1920x1080
  • Formato: MKV
  • Codec: H.264
  • Encoder: cinemaniahdd
  • Mediainfo: Clic para Mostrar Datos Ver
  • Scream (2022) AMZN WEB-DL 1080p Latino [CNMNHDD].mkv
    Format                      : Matroska
    Format version              : Version 4
    File size                   : 8.72 GiB
    Duration                    : 1 h 54 min
    Overall bit rate            : 10.9 Mb/s
    Encoded date                : UTC 2022-03-09 22:08:51
    Writing application         : mkvmerge v56.1.0 ('My Friend') 64-bit
    Writing library             : libebml v1.4.2 + libmatroska v1.6.4

    Video
    ID                          : 1
    Format                      : AVC
    Format/Info                 : Advanced Video Codec
    Format profile              : High@L4
    Format settings             : CABAC / 4 Ref Frames
    Format settings, CABAC      : Yes
    Format settings, Reference  : 4 frames
    Codec ID                    : V_MPEG4/ISO/AVC
    Duration                    : 1 h 54 min
    Bit rate mode               : Constant
    Bit rate                    : 8 979 kb/s
    Nominal bit rate            : 10 000 kb/s
    Width                       : 1 920 pixels
    Height                      : 800 pixels
    Display aspect ratio        : 2.40:1
    Frame rate mode             : Constant
    Frame rate                  : 23.976 (24000/1001) FPS
    Color space                 : YUV
    Chroma subsampling          : 4:2:0
    Bit depth                   : 8 bits
    Scan type                   : Progressive
    Bits/(Pixel*Frame)          : 0.244
    Stream size                 : 7.18 GiB (82%)
    Default                     : Yes
    Forced                      : No
    Color range                 : Limited
    Color primaries             : BT.709
    Transfer characteristics    : BT.709
    Matrix coefficients         : BT.709

    Audio #1
    ID                          : 2
    Format                      : AC-3
    Format/Info                 : Audio Coding 3
    Commercial name             : Dolby Digital
    Codec ID                    : A_AC3
    Duration                    : 1 h 54 min
    Bit rate mode               : Constant
    Bit rate                    : 640 kb/s
    Channel(s)                  : 6 channels
    Channel layout              : L R C LFE Ls Rs
    Sampling rate               : 48.0 kHz
    Frame rate                  : 31.250 FPS (1536 SPF)
    Compression mode            : Lossy
    Stream size                 : 524 MiB (6%)
    Language                    : Spanish
    Service kind                : Complete Main
    Default                     : Yes
    Forced                      : No

    Audio #2
    ID                          : 3
    Format                      : E-AC-3
    Format/Info                 : Enhanced AC-3
    Commercial name             : Dolby Digital Plus
    Codec ID                    : A_EAC3
    Duration                    : 1 h 54 min
    Bit rate mode               : Constant
    Bit rate                    : 640 kb/s
    Channel(s)                  : 6 channels
    Channel layout              : L R C LFE Ls Rs
    Sampling rate               : 48.0 kHz
    Frame rate                  : 31.250 FPS (1536 SPF)
    Compression mode            : Lossy
    Stream size                 : 524 MiB (6%)
    Title                       : Spanish
    Language                    : Spanish
    Service kind                : Complete Main
    Default                     : No
    Forced                      : No

    Audio #3
    ID                          : 4
    Format                      : E-AC-3
    Format/Info                 : Enhanced AC-3
    Commercial name             : Dolby Digital Plus
    Codec ID                    : A_EAC3
    Duration                    : 1 h 54 min
    Bit rate mode               : Constant
    Bit rate                    : 640 kb/s
    Channel(s)                  : 6 channels
    Channel layout              : L R C LFE Ls Rs
    Sampling rate               : 48.0 kHz
    Frame rate                  : 31.250 FPS (1536 SPF)
    Compression mode            : Lossy
    Stream size                 : 524 MiB (6%)
    Title                       : English
    Language                    : English
    Service kind                : Complete Main
    Default                     : No
    Forced                      : No

    Text
    ID                          : 5
    Format                      : UTF-8
    Codec ID                    : S_TEXT/UTF8
    Codec ID/Info               : UTF-8 Plain Text
    Duration                    : 1 h 53 min
    Bit rate                    : 50 b/s
    Count of elements           : 1514
    Stream size                 : 41.6 KiB (0%)
    Title                       : Spanish [Full]
    Language                    : Spanish
    Default                     : No
    Forced                      : No

     

  • Peso: 8.72 GiB

Sinopsis

Una nueva entrega de la saga de terror ‘Scream’ que seguirá a una mujer que regresa a su ciudad natal para intentar descubrir quién ha estado cometiendo una serie de crímenes atroces.

Ficha técnica

Video trailer de la película

Enlaces de descarga

Rip de Bluray

Descargar Scream (2022) AMZN WEB-DL 1080p Latino




Aportes de DPeliculasHDmega la pass es:dpeliculashdmega.org Aportes de CinemaniaHD la pass es:cinemaniahdd.com
Guardado en : Misterio , Suspenso , Terror

Películas relacionadas

  • Resurrección (2022) AMZN WEB-DL 1080p Latino

    Resurrección (2022) AMZN WEB-DL 1080p Latino

    2022
    Resurrección (2022) AMZN WEB-DL 1080p Latino

    1h 43m 2022

    Descargar Resurrección (2022) AMZN Web-DL 1080p Latino. La vida cuidadosamente construida de una mujer...

    Director: Michael Kefeyalew

    Género: Drama

    Actores: Zarra Kaahn

  • A Christmas Mystery (2022) HMAX WEB-DL 1080p Latino

    A Christmas Mystery (2022) HMAX WEB-DL 1080p Latino

    2022
    A Christmas Mystery (2022) HMAX WEB-DL 1080p Latino

    1h 27m 2022

    Cuando acusan falsamente al padre de su mejor amiga de robar las preciadas campanas de la ciudad, una...

    Director: Alex Ranarivelo

    Género: Comedia

    Actores: Violet McGraw

  • Plan De Estudios (2022) NF WEB-DL 1080p Latino

    Plan De Estudios (2022) NF WEB-DL 1080p Latino

    2022
    Plan De Estudios (2022) NF WEB-DL 1080p Latino

    1h 41m 2022

    Un expolicía empieza a trabajar en el instituto en el que su difunto mejor amigo daba clase para enfrentarse...

    Director: Daniel Markowicz

    Género: Crimen

    Actores: Zuzanna Galewicz

  • Locked In (2021) PLACEBO Full HD 1080p Latino

    Locked In (2021) PLACEBO Full HD 1080p Latino

    2021
    Locked In (2021) PLACEBO Full HD 1080p Latino

    1h 30m 2021

    Descargar Locked In (2021) PLACEBO Full HD 1080p Latino. Una madre soltera debe proteger a su hija durante...

    Director: Joe Narode

    Género: Crimen

    Actores: Natalie Smith

descargar Scream (2022) AMZN WEB-DL 1080p Latino 1080p 1080p gratis, Scream (2022) AMZN WEB-DL 1080p Latino 1080p mega 1 link, Scream (2022) AMZN WEB-DL 1080p Latino 1080p pelicula completa, descargar Scream (2022) AMZN WEB-DL 1080p Latino 1080p gratis en mega.

Scream (2022) AMZN WEB-DL 1080p Latino pelicula full hd, Scream (2022) AMZN WEB-DL 1080p Latino mega latino, Scream (2022) AMZN WEB-DL 1080p Latino 4k latino, Scream (2022) AMZN WEB-DL 1080p Latino pelicula completa, Scream (2022) AMZN WEB-DL 1080p Latino descargar gratis, descargar Scream (2022) AMZN WEB-DL 1080p Latino pelicula latino, Scream (2022) AMZN WEB-DL 1080p Latino 1 link mega, Scream (2022) AMZN WEB-DL 1080p Latino 1 link google drive, Scream (2022) AMZN WEB-DL 1080p Latino hd 1080p latino.
Comentarios 0