×

¿Problemas para descargar con Mozilla, EDGE? Deshabilita la opción "Abrir vinculos en una pestaña nueva" tal como lo muestra ésta imagen.

Scream 2 (1997) REMUX 1080p Latino

1.345 vistas

Información de Scream 2 (1997) REMUX 1080p Latino

Datos de la película

  • Calidad: Full 1080p
  • Audio: Español Latino AC3 2.0 Netflix - Ingles DTS 5.1 BURAY
  • Subtitulos: Español Latino SRT- FORZADOS SRT
  • Resolución: 1920x1080p
  • Formato: MKV
  • Codec: H.264
  • Encoder: Dracarys
  • Mediainfo: Clic para Mostrar Datos Ver
  • Format                      : Matroska
    Format version              : Version 4
    File size                   : 22.1 GiB
    Duration                    : 2 h 0 min
    Overall bit rate mode       : Variable
    Overall bit rate            : 26.3 Mb/s
    Movie name                  : Scream 2 (1997) REMUX 1080p Latino - CMHDD
    Encoded date                : UTC 2020-11-07 21:47:26
    Writing application         : mkvmerge v51.0.0 ('I Wish') 64-bit
    Writing library             : libebml v1.4.0 + libmatroska v1.6.2

    Video
    ID                          : 1
    Format                      : AVC
    Format/Info                 : Advanced Video Codec
    Format profile              : High@L4.1
    Format settings             : CABAC / 4 Ref Frames
    Format settings, CABAC      : Yes
    Format settings, Reference  : 4 frames
    Format settings, GOP        : M=3, N=24
    Codec ID                    : V_MPEG4/ISO/AVC
    Duration                    : 2 h 0 min
    Bit rate mode               : Variable
    Bit rate                    : 24.0 Mb/s
    Maximum bit rate            : 33.0 Mb/s
    Width                       : 1 920 pixels
    Height                      : 1 080 pixels
    Display aspect ratio        : 16:9
    Frame rate mode             : Constant
    Frame rate                  : 23.976 (23976/1000) FPS
    Original frame rate         : 23.976 (24000/1001) FPS
    Standard                    : NTSC
    Color space                 : YUV
    Chroma subsampling          : 4:2:0
    Bit depth                   : 8 bits
    Scan type                   : Progressive
    Bits/(Pixel*Frame)          : 0.483
    Stream size                 : 20.1 GiB (91%)
    Default                     : Yes
    Forced                      : No
    Color range                 : Limited
    Color primaries             : BT.709
    Transfer characteristics    : BT.709
    Matrix coefficients         : BT.709

    Audio #1
    ID                          : 2
    Format                      : AC-3
    Format/Info                 : Audio Coding 3
    Commercial name             : Dolby Digital
    Codec ID                    : A_AC3
    Duration                    : 2 h 0 min
    Bit rate mode               : Constant
    Bit rate                    : 256 kb/s
    Channel(s)                  : 2 channels
    Channel layout              : L R
    Sampling rate               : 48.0 kHz
    Frame rate                  : 31.250 FPS (1536 SPF)
    Compression mode            : Lossy
    Delay relative to video     : 16 ms
    Stream size                 : 220 MiB (1%)
    Language                    : Spanish
    Service kind                : Complete Main
    Default                     : Yes
    Forced                      : No

    Audio #2
    ID                          : 3
    Format                      : DTS XLL
    Format/Info                 : Digital Theater Systems
    Commercial name             : DTS-HD Master Audio
    Codec ID                    : A_DTS
    Duration                    : 2 h 0 min
    Bit rate mode               : Variable
    Bit rate                    : 2 044 kb/s
    Channel(s)                  : 6 channels
    Channel layout              : C L R Ls Rs LFE
    Sampling rate               : 48.0 kHz
    Frame rate                  : 93.750 FPS (512 SPF)
    Bit depth                   : 16 bits
    Compression mode            : Lossless
    Stream size                 : 1.72 GiB (8%)
    Language                    : English
    Default                     : No
    Forced                      : No

    Text #1
    ID                          : 4
    Format                      : UTF-8
    Codec ID                    : S_TEXT/UTF8
    Codec ID/Info               : UTF-8 Plain Text
    Duration                    : 1 h 54 min
    Bit rate                    : 0 b/s
    Count of elements           : 11
    Stream size                 : 292 Bytes (0%)
    Title                       : Forzados
    Language                    : Spanish
    Default                     : Yes
    Forced                      : No

    Text #2
    ID                          : 5
    Format                      : UTF-8
    Codec ID                    : S_TEXT/UTF8
    Codec ID/Info               : UTF-8 Plain Text
    Duration                    : 1 h 52 min
    Bit rate                    : 64 b/s
    Count of elements           : 2340
    Stream size                 : 53.3 KiB (0%)
    Language                    : Spanish
    Default                     : No
    Forced                      : No

    Text #3
    ID                          : 6
    Format                      : PGS
    Muxing mode                 : zlib
    Codec ID                    : S_HDMV/PGS
    Codec ID/Info               : Picture based subtitle format used on BDs/HD-DVDs
    Duration                    : 1 h 54 min
    Bit rate                    : 56.5 kb/s
    Count of elements           : 2798
    Stream size                 : 46.2 MiB (0%)
    Language                    : Spanish
    Default                     : No
    Forced                      : No

    Menu
    00:00:00.000                : en:Chapter 1
    00:07:05.341                : en:Chapter 2
    00:11:46.497                : en:Chapter 3
    00:15:03.277                : en:Chapter 4
    00:18:22.267                : en:Chapter 5
    00:22:02.237                : en:Chapter 6
    00:24:33.930                : en:Chapter 7
    00:25:56.429                : en:Chapter 8
    00:28:51.062                : en:Chapter 9
    00:35:18.574                : en:Chapter 10
    00:38:23.384                : en:Chapter 11
    00:42:54.572                : en:Chapter 12
    00:46:29.244                : en:Chapter 13
    00:49:50.487                : en:Chapter 14
    00:54:51.788                : en:Chapter 15
    01:00:47.560                : en:Chapter 16
    01:06:13.511                : en:Chapter 17
    01:09:35.462                : en:Chapter 18
    01:12:54.745                : en:Chapter 19
    01:23:04.688                : en:Chapter 20
    01:32:00.848                : en:Chapter 21
    01:37:32.513                : en:Chapter 22
    01:41:29.458                : en:Chapter 23
    01:43:41.506                : en:Chapter 24
    01:45:25.110                : en:Chapter 25
    01:50:48.350                : en:Chapter 26
    01:53:03.777                : en:Chapter 27

  • Peso: 22.1 GiB

Sinopsis

Descargar Scream 2 (1997) REMUX 1080p Latino. La universidad de Windsor ofrece una variada opción de materias para sus estudiantes, justo lo que Sidney Prescott necesita. Es primavera, dos años después de los asesinatos en Woodsboro, California, y el año escolar está llegando a su fin. Sid tiene una compañera de habitación, un novio y es la elegida para encabezar el reparto de la obra que se representa en la universidad este curso. Randy, otro de los supervivientes de los asesinatos de Woodsboro, estudia cine en Windsor. También es feliz, como Sid. Pero el pasado nunca queda atrás. De hecho, vuelve y alguien es asesinado mientras ve la película «Stab» (Puñalada) en el cine del campus, el día del estreno nacional. Stab, basada en la novela superventas escrita por la periodista Gale Weathers, describe los asesinatos de Woodsboro. El libro no sólo se vendió como rosquillas, además ayudó a salir de la prisión a Cotton Weary, el hombre acusado por Sidney de la muerte de su madre.

RESUBIDA

Ficha técnica

Video trailer de la película

Enlaces de descarga

Rip de Bluray

Descargar Scream 2 (1997) REMUX 1080p Latino


Aportes de DPeliculasHDmega la pass es:dpeliculashdmega.org Aportes de CinemaniaHD la pass es:cinemaniahdd.com Aportes recientes:cinemaniahdd.net
Guardado en : Misterio , Remux , Terror
Etiquetado en :

Películas relacionadas

  • La Duquesa (2008) REMUX 1080p Latino-CMHDD

    La Duquesa (2008) REMUX 1080p Latino-CMHDD

    2008
    La Duquesa (2008) REMUX 1080p Latino-CMHDD

    1h 51m 2008

    Descargar La Duquesa (2008) REMUX 1080p Latino-CMHDD. Hermosa, glamurosa y adorada por el pueblo, Georgiana...

    Director: Saul Dibb

    Género: Drama

    Actores: Thomas Arnold

  • Ferrari (2023) REMUX 1080p Latino

    Ferrari (2023) REMUX 1080p Latino

    2023
    Ferrari (2023) REMUX 1080p Latino

    2h 11m 2023

    Descargar Ferrari (2023) REMUX 1080p Latino. Verano de 1957. El ex piloto de carreras, Ferrari, está...

    Director: Peter Thorell

    Género: Drama

    Actores: Wyatt Carnel

  • Lisa Frankenstein (2024) HD 1080p Latino

    Lisa Frankenstein (2024) HD 1080p Latino

    2024
    Lisa Frankenstein (2024) HD 1080p Latino

    1h 42m 2024

    Descargar Lisa Frankenstein (2024) HD 1080p Latino. En 1989, una impopular chica de secundaria llamada...

    Director: Zelda Williams

    Género: Comedia

    Actores: Wendy Miklovic

descargar Scream 2 (1997) REMUX 1080p Latino Full 1080p 1080p gratis, Scream 2 (1997) REMUX 1080p Latino Full 1080p mega 1 link, Scream 2 (1997) REMUX 1080p Latino Full 1080p pelicula completa, descargar Scream 2 (1997) REMUX 1080p Latino Full 1080p gratis en mega.

Scream 2 (1997) REMUX 1080p Latino pelicula full hd, Scream 2 (1997) REMUX 1080p Latino mega latino, Scream 2 (1997) REMUX 1080p Latino 4k latino, Scream 2 (1997) REMUX 1080p Latino pelicula completa, Scream 2 (1997) REMUX 1080p Latino descargar gratis, descargar Scream 2 (1997) REMUX 1080p Latino pelicula latino, Scream 2 (1997) REMUX 1080p Latino 1 link mega, Scream 2 (1997) REMUX 1080p Latino 1 link google drive, Scream 2 (1997) REMUX 1080p Latino hd 1080p latino.
Comentarios 0