×

¿Problemas para descargar con Mozilla, EDGE? Deshabilita la opción "Abrir vinculos en una pestaña nueva" tal como lo muestra ésta imagen.

Scream 2 (1997) Full HD 1080p Latino

298 vistas

Información de Scream 2 (1997) Full HD 1080p Latino

Datos de la película

  • Calidad: Full 1080p
  • Audio: Español Latino AC3 2.0 Netflix - Ingles DTS 5.1 BURAY
  • Subtitulos: Español Latino SRT- FORZADOS SRT
  • Resolución: 1920x1080p
  • Formato: MKV
  • Codec: H.264
  • Encoder: CinefiloCool
  • Mediainfo: Clic para Mostrar Datos Ver
  • Scream 2 (1997) Full HD 1080p Latino-CMHDD.mkv
    Format                      : Matroska
    Format version              : Version 4
    File size                   : 8.53 GiB
    Duration                    : 2 h 0 min
    Overall bit rate            : 10.2 Mb/s
    Movie name                  : Scream 2 (1997) CinemaniaHDD.Net
    Encoded date                : UTC 2023-09-22 08:27:32
    Writing application         : mkvmerge v56.1.0 ('My Friend') 64-bit
    Writing library             : libebml v1.4.2 + libmatroska v1.6.4
    Attachments                 : CINEMANIAHD.png

    Video
    ID                          : 1
    Format                      : AVC
    Format/Info                 : Advanced Video Codec
    Format profile              : High@L4.1
    Format settings             : CABAC / 4 Ref Frames
    Format settings, CABAC      : Yes
    Format settings, Reference  : 4 frames
    Codec ID                    : V_MPEG4/ISO/AVC
    Duration                    : 2 h 0 min
    Bit rate                    : 8 370 kb/s
    Width                       : 1 920 pixels
    Height                      : 1 080 pixels
    Display aspect ratio        : 16:9
    Frame rate mode             : Constant
    Frame rate                  : 23.976 (24000/1001) FPS
    Color space                 : YUV
    Chroma subsampling          : 4:2:0
    Bit depth                   : 8 bits
    Scan type                   : Progressive
    Bits/(Pixel*Frame)          : 0.168
    Stream size                 : 7.03 GiB (82%)
    Title                       : Full HD1080p [CinemaniaHDD]
    Writing library             : x264 core 163 r3059 b684ebe0
    Encoding settings           : cabac=1 / ref=4 / deblock=1:0:0 / analyse=0x3:0x133 / me=tesa / subme=11 / psy=1 / psy_rd=1.00:0.00 / mixed_ref=1 / me_range=24 / chroma_me=1 / trellis=2 / 8x8dct=1 / cqm=0 / deadzone=21,11 / fast_pskip=0 / chroma_qp_offset=-2 / threads=24 / lookahead_threads=6 / sliced_threads=0 / nr=0 / decimate=1 / interlaced=0 / bluray_compat=0 / constrained_intra=0 / bframes=16 / b_pyramid=2 / b_adapt=2 / b_bias=0 / direct=3 / weightb=1 / open_gop=0 / weightp=2 / keyint=240 / keyint_min=24 / scenecut=40 / intra_refresh=0 / rc_lookahead=60 / rc=crf / mbtree=1 / crf=20.0 / qcomp=0.60 / qpmin=0 / qpmax=69 / qpstep=4 / vbv_maxrate=62500 / vbv_bufsize=78125 / crf_max=0.0 / nal_hrd=none / filler=0 / ip_ratio=1.40 / aq=1:1.00
    Default                     : Yes
    Forced                      : Yes
    Color range                 : Limited
    Color primaries             : BT.709
    Transfer characteristics    : BT.709
    Matrix coefficients         : BT.709

    Audio #1
    ID                          : 2
    Format                      : AC-3
    Format/Info                 : Audio Coding 3
    Commercial name             : Dolby Digital
    Codec ID                    : A_AC3
    Duration                    : 2 h 0 min
    Bit rate mode               : Constant
    Bit rate                    : 256 kb/s
    Channel(s)                  : 2 channels
    Channel layout              : L R
    Sampling rate               : 48.0 kHz
    Frame rate                  : 31.250 FPS (1536 SPF)
    Compression mode            : Lossy
    Stream size                 : 220 MiB (3%)
    Title                       : Español Latino [CinemaniaHDD]
    Language                    : Spanish
    Service kind                : Complete Main
    Default                     : Yes
    Forced                      : Yes

    Audio #2
    ID                          : 3
    Format                      : DTS
    Format/Info                 : Digital Theater Systems
    Codec ID                    : A_DTS
    Duration                    : 2 h 0 min
    Bit rate mode               : Constant
    Bit rate                    : 1 509 kb/s
    Channel(s)                  : 6 channels
    Channel layout              : C L R Ls Rs LFE
    Sampling rate               : 48.0 kHz
    Frame rate                  : 93.750 FPS (512 SPF)
    Bit depth                   : 24 bits
    Compression mode            : Lossy
    Stream size                 : 1.27 GiB (15%)
    Title                       : Ingles [CinemaniaHDD]
    Language                    : English
    Default                     : No
    Forced                      : No

    Text #1
    ID                          : 4
    Format                      : PGS
    Muxing mode                 : zlib
    Codec ID                    : S_HDMV/PGS
    Codec ID/Info               : Picture based subtitle format used on BDs/HD-DVDs
    Duration                    : 1 h 54 min
    Bit rate                    : 56.5 kb/s
    Count of elements           : 2798
    Stream size                 : 46.2 MiB (1%)
    Title                       : Español-PGS [CinemaniaHDD]
    Language                    : Spanish
    Default                     : No
    Forced                      : No

    Text #2
    ID                          : 5
    Format                      : UTF-8
    Codec ID                    : S_TEXT/UTF8
    Codec ID/Info               : UTF-8 Plain Text
    Duration                    : 1 h 15 min
    Bit rate                    : 0 b/s
    Count of elements           : 6
    Stream size                 : 174 Bytes (0%)
    Title                       : Forzados-SRT [CinemaniaHDD]
    Language                    : Spanish
    Default                     : Yes
    Forced                      : Yes

    Text #3
    ID                          : 6
    Format                      : UTF-8
    Codec ID                    : S_TEXT/UTF8
    Codec ID/Info               : UTF-8 Plain Text
    Duration                    : 1 h 52 min
    Bit rate                    : 64 b/s
    Count of elements           : 2340
    Stream size                 : 53.3 KiB (0%)
    Title                       : Español-SRT [CinemaniaHDD]
    Language                    : Spanish
    Default                     : No
    Forced                      : No

    Menu
    00:00:00.000                : Chapter 1
    00:11:48.499                : Chapter 2
    00:17:17.036                : Chapter 3
    00:24:08.321                : Chapter 4
    00:28:03.932                : Chapter 5
    00:37:08.851                : Chapter 6
    00:40:54.326                : Chapter 7
    00:46:31.246                : Chapter 8
    00:54:53.790                : Chapter 9
    00:59:26.563                : Chapter 10
    01:06:09.799                : Chapter 11
    01:12:56.747                : Chapter 12
    01:23:06.690                : Chapter 13
    01:27:24.530                : Chapter 14
    01:33:36.569                : Chapter 15
    01:45:27.112                : Chapter 16

  • Peso: 8.53 GiB

Sinopsis

Descargar Scream 2 (1997) Full HD 1080p Latino. La universidad de Windsor ofrece una variada opción de materias para sus estudiantes, justo lo que Sidney Prescott necesita. Es primavera, dos años después de los asesinatos en Woodsboro, California, y el año escolar está llegando a su fin. Sid tiene una compañera de habitación, un novio y es la elegida para encabezar el reparto de la obra que se representa en la universidad este curso. Randy, otro de los supervivientes de los asesinatos de Woodsboro, estudia cine en Windsor. También es feliz, como Sid. Pero el pasado nunca queda atrás. De hecho, vuelve y alguien es asesinado mientras ve la película «Stab» (Puñalada) en el cine del campus, el día del estreno nacional. Stab, basada en la novela superventas escrita por la periodista Gale Weathers, describe los asesinatos de Woodsboro. El libro no sólo se vendió como rosquillas, además ayudó a salir de la prisión a Cotton Weary, el hombre acusado por Sidney de la muerte de su madre.

Ficha técnica

Video trailer de la película

Enlaces de descarga

Rip de Bluray

Descargar Scream 2 (1997) Full HD 1080p Latino




Aportes de DPeliculasHDmega la pass es:dpeliculashdmega.org Aportes de CinemaniaHD la pass es:cinemaniahdd.com Aportes recientes:cinemaniahdd.net
Etiquetado en :

Películas relacionadas

  • Wolves (2022) AMZN WEB-DL 1080p Latino

    Wolves (2022) AMZN WEB-DL 1080p Latino

    2022
    Wolves (2022) AMZN WEB-DL 1080p Latino

    1h 43m 2022

    Un joven solitario se depara con una serie de crímenes sin resolver, que involucran animales mutilados...

    Director: Danny Dunlop

    Género: Crimen

    Actores: Rod Keith

  • The Acolyte (2024) Temporada 1 WEB-DL 1080p Latino

    The Acolyte (2024) Temporada 1 WEB-DL 1080p Latino

    2024
    The Acolyte (2024) Temporada 1 WEB-DL 1080p Latino

    0h 0m 2024

    Descargar The Acolyte (2024) Temporada 1 WEB-DL 1080p Latino. Una investigación sobre una impactante...

    Director: Leslye Headland

    Género: Misterio

    Actores: 이정재

  • Tarot (2024) REMUX 1080p Latino-CMHDD

    Tarot (2024) REMUX 1080p Latino-CMHDD

    2024
    Tarot (2024) REMUX 1080p Latino-CMHDD

    1h 32m 2024

    Descargar Tarot (2024) REMUX 1080p Latino-CMHDD. Un grupo de amigos de la universidad comienzan a morir...

    Director: Spenser Cohen

    Género: Remux

    Actores: Wolfgang Novogratz

descargar Scream 2 (1997) Full HD 1080p Latino Full 1080p 1080p gratis, Scream 2 (1997) Full HD 1080p Latino Full 1080p mega 1 link, Scream 2 (1997) Full HD 1080p Latino Full 1080p pelicula completa, descargar Scream 2 (1997) Full HD 1080p Latino Full 1080p gratis en mega.

Scream 2 (1997) Full HD 1080p Latino pelicula full hd, Scream 2 (1997) Full HD 1080p Latino mega latino, Scream 2 (1997) Full HD 1080p Latino 4k latino, Scream 2 (1997) Full HD 1080p Latino pelicula completa, Scream 2 (1997) Full HD 1080p Latino descargar gratis, descargar Scream 2 (1997) Full HD 1080p Latino pelicula latino, Scream 2 (1997) Full HD 1080p Latino 1 link mega, Scream 2 (1997) Full HD 1080p Latino 1 link google drive, Scream 2 (1997) Full HD 1080p Latino hd 1080p latino.
Comentarios 0