×

¿Problemas para descargar con Mozilla, EDGE? Deshabilita la opción "Abrir vinculos en una pestaña nueva" tal como lo muestra ésta imagen.

Scream (1996) REMUX 1080p Latino – CMHDD

581 vistas

Información de Scream (1996) REMUX 1080p Latino – CMHDD

Datos de la película

  • Calidad: Full 1080p
  • Audio: Español Latino AC3 2.0 iTUNES - Ingles DTS 5.1 BURAY
  • Subtitulos: Español Latino SRT- FORZADOS SRT
  • Resolución: 1920x1080p
  • Formato: MKV
  • Codec: H.264
  • Encoder: Dracarys
  • Mediainfo: Clic para Mostrar Datos Ver
  • Format                      : Matroska
    Format version              : Version 4
    File size                   : 18.8 GiB
    Duration                    : 1 h 50 min
    Overall bit rate mode       : Variable
    Overall bit rate            : 24.2 Mb/s
    Movie name                  : Scream (1996) REMUX 1080p Latino - CMHDD
    Encoded date                : UTC 2020-11-07 23:19:29
    Writing application         : mkvmerge v51.0.0 ('I Wish') 64-bit
    Writing library             : libebml v1.4.0 + libmatroska v1.6.2

    Video
    ID                          : 1
    Format                      : AVC
    Format/Info                 : Advanced Video Codec
    Format profile              : High@L4.1
    Format settings             : CABAC / 4 Ref Frames
    Format settings, CABAC      : Yes
    Format settings, Reference  : 4 frames
    Codec ID                    : V_MPEG4/ISO/AVC
    Duration                    : 1 h 50 min
    Bit rate mode               : Variable
    Bit rate                    : 20.0 Mb/s
    Maximum bit rate            : 37.0 Mb/s
    Width                       : 1 920 pixels
    Height                      : 1 080 pixels
    Display aspect ratio        : 16:9
    Frame rate mode             : Constant
    Frame rate                  : 23.976 (24000/1001) FPS
    Color space                 : YUV
    Chroma subsampling          : 4:2:0
    Bit depth                   : 8 bits
    Scan type                   : Progressive
    Bits/(Pixel*Frame)          : 0.402
    Stream size                 : 15.5 GiB (82%)
    Default                     : Yes
    Forced                      : No

    Audio #1
    ID                          : 2
    Format                      : AC-3
    Format/Info                 : Audio Coding 3
    Commercial name             : Dolby Digital
    Codec ID                    : A_AC3
    Duration                    : 1 h 50 min
    Bit rate mode               : Constant
    Bit rate                    : 256 kb/s
    Channel(s)                  : 2 channels
    Channel layout              : L R
    Sampling rate               : 48.0 kHz
    Frame rate                  : 31.250 FPS (1536 SPF)
    Compression mode            : Lossy
    Stream size                 : 203 MiB (1%)
    Language                    : Spanish
    Service kind                : Complete Main
    Default                     : Yes
    Forced                      : No

    Audio #2
    ID                          : 3
    Format                      : DTS XLL
    Format/Info                 : Digital Theater Systems
    Commercial name             : DTS-HD Master Audio
    Codec ID                    : A_DTS
    Duration                    : 1 h 50 min
    Bit rate mode               : Variable
    Bit rate                    : 3 992 kb/s
    Channel(s)                  : 6 channels
    Channel layout              : C L R Ls Rs LFE
    Sampling rate               : 48.0 kHz
    Frame rate                  : 93.750 FPS (512 SPF)
    Bit depth                   : 24 bits
    Compression mode            : Lossless
    Stream size                 : 3.09 GiB (16%)
    Language                    : English
    Default                     : No
    Forced                      : No

    Text #1
    ID                          : 4
    Format                      : UTF-8
    Codec ID                    : S_TEXT/UTF8
    Codec ID/Info               : UTF-8 Plain Text
    Duration                    : 28 min 28 s
    Bit rate                    : 0 b/s
    Count of elements           : 5
    Stream size                 : 172 Bytes (0%)
    Title                       : Forzados
    Default                     : Yes
    Forced                      : No

    Text #2
    ID                          : 5
    Format                      : UTF-8
    Codec ID                    : S_TEXT/UTF8
    Codec ID/Info               : UTF-8 Plain Text
    Duration                    : 1 h 43 min
    Bit rate                    : 43 b/s
    Count of elements           : 1220
    Stream size                 : 32.8 KiB (0%)
    Language                    : Spanish
    Default                     : No
    Forced                      : No

    Text #3
    ID                          : 6
    Format                      : PGS
    Muxing mode                 : zlib
    Codec ID                    : S_HDMV/PGS
    Codec ID/Info               : Picture based subtitle format used on BDs/HD-DVDs
    Duration                    : 1 h 43 min
    Bit rate                    : 40.1 kb/s
    Count of elements           : 2439
    Stream size                 : 29.7 MiB (0%)
    Language                    : Spanish
    Default                     : No
    Forced                      : No

  • Peso: 18.8 GiB

Sinopsis

Sidney Prescott, una adolescente de la pequeña comunidad de Woodsboro, se convierte en el objetivo de un misterioso asesino en serie. Una reportera de un canal de noticias, Gale Weathers, que cubrió el asesinato un año atrás de la madre de Sidney, cubre ahora estos asesinatos, además ha escrito un libro en el que defiende al supuesto asesino de Maureen, Cotton Weary, que va a ir a la cámara de gas, alegando que cayó en una trampa, lo que hace reavivar la polémica. Los crímenes dejan de ser aislados y continúan los asesinatos. Ahora Sidney, su novio y sus amigos están en peligro, ya que el asesino quiere revivir lo sucedido un año atrás con Maureen Prescott, pero esta vez con su hija.

Ficha técnica

Video trailer de la película

Enlaces de descarga

Rip de Bluray

Descargar Scream (1996) REMUX 1080p Latino – CMHDD


Aportes de DPeliculasHDmega la pass es:dpeliculashdmega.org Aportes de CinemaniaHD la pass es:cinemaniahdd.com
Guardado en : Crimen , Misterio , Terror

Películas relacionadas

  • Emily la criminal (2022) HD 1080p Latino

    Emily la criminal (2022) HD 1080p Latino

    2022
    Emily la criminal (2022) HD 1080p Latino

    1h 37m 2022

    Descargar Emily la criminal (2022) HD 1080p Latino. Emily, que tiene una deuda estudiantil y está excluida...

    Director: John Patton Ford

    Género: Crimen

    Actores: Theo Rossi

  • Emily la criminal (2022) REMUX 1080p Latino

    Emily la criminal (2022) REMUX 1080p Latino

    2022
    Emily la criminal (2022) REMUX 1080p Latino

    1h 37m 2022

    Descargar Emily la criminal (2022) REMUX 1080p Latino. Emily, que tiene una deuda estudiantil y está...

    Director: John Patton Ford

    Género: Crimen

    Actores: Theo Rossi

descargar Scream (1996) REMUX 1080p Latino – CMHDD Full 1080p 1080p gratis, Scream (1996) REMUX 1080p Latino – CMHDD Full 1080p mega 1 link, Scream (1996) REMUX 1080p Latino – CMHDD Full 1080p pelicula completa, descargar Scream (1996) REMUX 1080p Latino – CMHDD Full 1080p gratis en mega.

Scream (1996) REMUX 1080p Latino – CMHDD pelicula full hd, Scream (1996) REMUX 1080p Latino – CMHDD mega latino, Scream (1996) REMUX 1080p Latino – CMHDD 4k latino, Scream (1996) REMUX 1080p Latino – CMHDD pelicula completa, Scream (1996) REMUX 1080p Latino – CMHDD descargar gratis, descargar Scream (1996) REMUX 1080p Latino – CMHDD pelicula latino, Scream (1996) REMUX 1080p Latino – CMHDD 1 link mega, Scream (1996) REMUX 1080p Latino – CMHDD 1 link google drive, Scream (1996) REMUX 1080p Latino – CMHDD hd 1080p latino.
Comentarios 0