Scream (1996) REMUX 1080p Latino – CMHDD

35 vistas
1 estrella2 estrellas3 estrellas4 estrellas5 estrellas (Ninguna valoración todavía)
Cargando...

Información de Scream (1996) REMUX 1080p Latino – CMHDD

Datos de la película

  • Calidad: Full 1080p
  • Audio: Español Latino AC3 2.0 BLURAY - Ingles DTS 5.1 BLURAY
  • Subtitulos: Español Latino PGS
  • Resolución: 1920x1080p
  • Formato: MKV
  • Codec: H.264
  • Encoder: Dracarys
  • Mediainfo: Clic para Mostrar Datos Ver
  • Format                      : Matroska
    Format version              : Version 4
    File size                   : 30.0 GiB
    Duration                    : 1 h 51 min
    Overall bit rate mode       : Variable
    Overall bit rate            : 38.7 Mb/s
    Movie name                  : Scream (1996) REMUX 1080p Latino - CMHDD
    Encoded date                : UTC 2021-10-19 02:01:31
    Writing application         : mkvmerge v17.0.0 ('Be Ur Friend') 64-bit
    Writing library             : libebml v1.3.5 + libmatroska v1.4.8

    Video
    ID                          : 1
    Format                      : AVC
    Format/Info                 : Advanced Video Codec
    Format profile              : High@L4.1
    Format settings             : CABAC / 4 Ref Frames
    Format settings, CABAC      : Yes
    Format settings, Reference  : 4 frames
    Codec ID                    : V_MPEG4/ISO/AVC
    Duration                    : 1 h 51 min
    Bit rate mode               : Variable
    Bit rate                    : 34.7 Mb/s
    Maximum bit rate            : 38.2 Mb/s
    Width                       : 1 920 pixels
    Height                      : 1 080 pixels
    Display aspect ratio        : 16:9
    Frame rate mode             : Constant
    Frame rate                  : 23.976 (24000/1001) FPS
    Color space                 : YUV
    Chroma subsampling          : 4:2:0
    Bit depth                   : 8 bits
    Scan type                   : Progressive
    Bits/(Pixel*Frame)          : 0.697
    Stream size                 : 26.9 GiB (90%)
    Default                     : Yes
    Forced                      : No

    Audio #1
    ID                          : 2
    Format                      : DTS XLL
    Format/Info                 : Digital Theater Systems
    Commercial name             : DTS-HD Master Audio
    Codec ID                    : A_DTS
    Duration                    : 1 h 51 min
    Bit rate mode               : Variable
    Bit rate                    : 3 718 kb/s
    Channel(s)                  : 6 channels
    Channel layout              : C L R Ls Rs LFE
    Sampling rate               : 48.0 kHz
    Frame rate                  : 93.750 FPS (512 SPF)
    Bit depth                   : 24 bits
    Compression mode            : Lossless
    Stream size                 : 2.88 GiB (10%)
    Language                    : English
    Default                     : No
    Forced                      : No

    Audio #2
    ID                          : 3
    Format                      : AC-3
    Format/Info                 : Audio Coding 3
    Commercial name             : Dolby Digital
    Codec ID                    : A_AC3
    Duration                    : 1 h 51 min
    Bit rate mode               : Constant
    Bit rate                    : 224 kb/s
    Channel(s)                  : 2 channels
    Channel layout              : L R
    Sampling rate               : 48.0 kHz
    Frame rate                  : 31.250 FPS (1536 SPF)
    Compression mode            : Lossy
    Stream size                 : 178 MiB (1%)
    Language                    : Spanish
    Service kind                : Complete Main
    Default                     : Yes
    Forced                      : No

    Text #1
    ID                          : 4
    Format                      : PGS
    Muxing mode                 : zlib
    Codec ID                    : S_HDMV/PGS
    Codec ID/Info               : Picture based subtitle format used on BDs/HD-DVDs
    Duration                    : 1 h 50 min
    Bit rate                    : 28.4 kb/s
    Count of elements           : 2678
    Stream size                 : 22.5 MiB (0%)
    Language                    : Spanish
    Default                     : No
    Forced                      : No

    Text #2
    ID                          : 5
    Format                      : PGS
    Muxing mode                 : zlib
    Codec ID                    : S_HDMV/PGS
    Codec ID/Info               : Picture based subtitle format used on BDs/HD-DVDs
    Duration                    : 1 h 50 min
    Bit rate                    : 58.3 kb/s
    Count of elements           : 3768
    Stream size                 : 46.2 MiB (0%)
    Language                    : Spanish
    Default                     : No
    Forced                      : No

    Menu
    00:00:00.000                : en:Chapter 1
    00:00:18.810                : en:Chapter 2
    00:12:59.528                : en:Chapter 3
    00:18:43.080                : en:Chapter 4
    00:33:08.027                : en:Chapter 5
    00:35:57.780                : en:Chapter 6
    00:37:13.689                : en:Chapter 7
    00:40:05.444                : en:Chapter 8
    00:51:15.489                : en:Chapter 9
    01:04:27.238                : en:Chapter 10
    01:13:07.132                : en:Chapter 11
    01:19:49.284                : en:Chapter 12
    01:27:02.050                : en:Chapter 13
    01:34:41.300                : en:Chapter 14
    01:36:28.199                : en:Chapter 15
    01:38:04.086                : en:Chapter 16

  • Peso: 30.0 GiB

Sinopsis

Sidney Prescott, una adolescente de la pequeña comunidad de Woodsboro, se convierte en el objetivo de un misterioso asesino en serie. Una reportera de un canal de noticias, Gale Weathers, que cubrió el asesinato un año atrás de la madre de Sidney, cubre ahora estos asesinatos, además ha escrito un libro en el que defiende al supuesto asesino de Maureen, Cotton Weary, que va a ir a la cámara de gas, alegando que cayó en una trampa, lo que hace reavivar la polémica. Los crímenes dejan de ser aislados y continúan los asesinatos. Ahora Sidney, su novio y sus amigos están en peligro, ya que el asesino quiere revivir lo sucedido un año atrás con Maureen Prescott, pero esta vez con su hija.

 

REMASTERED BD 4K

Ficha técnica

Video trailer de la película

Enlaces de descarga

Rip de Bluray

Descargar Scream (1996) REMUX 1080p Latino – CMHDD


Aportes de DPeliculasHDmega la pass es:dpeliculashdmega.org Aportes de CinemaniaHD la pass es:cinemaniahdd.com
Guardado en : Crimen , Misterio , Terror

Películas relacionadas

Scream (1996) REMUX 1080p Latino – CMHDD pelicula full hd, Scream (1996) REMUX 1080p Latino – CMHDD mega latino, Scream (1996) REMUX 1080p Latino – CMHDD 4k latino, Scream (1996) REMUX 1080p Latino – CMHDD pelicula completa, Scream (1996) REMUX 1080p Latino – CMHDD descargar gratis, descargar Scream (1996) REMUX 1080p Latino – CMHDD pelicula latino, Scream (1996) REMUX 1080p Latino – CMHDD 1 link mega, Scream (1996) REMUX 1080p Latino – CMHDD 1 link google drive, Scream (1996) REMUX 1080p Latino – CMHDD hd 1080p latino.