×

¿Problemas para descargar con Mozilla, EDGE? Deshabilita la opción "Abrir vinculos en una pestaña nueva" tal como lo muestra ésta imagen.

Scott Pilgrim vs. the World (2010) REMUX 4K HDR Latino – CMHDD

277 vistas

Información de Scott Pilgrim vs. the World (2010) REMUX 4K HDR Latino – CMHDD

Datos de la película

  • Calidad: 4K HDR
  • Audio: Español Latino DTS 5.1 BLURAY - Ingles DTS-HD Master 7.1 BLURAY
  • Subtitulos: Español Latino PGS
  • Resolución: 3840x2160p
  • Formato: MKV
  • Codec: HEVC
  • Encoder: Dracarys
  • Mediainfo: Clic para Mostrar Datos Ver
  • Format                      : Matroska
    Format version              : Version 4
    File size                   : 38.8 GiB
    Duration                    : 1 h 52 min
    Overall bit rate mode       : Variable
    Overall bit rate            : 49.4 Mb/s
    Movie name                  : Scott Pilgrim vs. the World (2010) REMUX 4K HDR Latino - CMHDD
    Encoded date                : UTC 2021-07-09 02:49:14
    Writing application         : mkvmerge v56.1.0 ('My Friend') 64-bit
    Writing library             : libebml v1.4.2 + libmatroska v1.6.4
    Cover                       : Yes
    Attachments                 : cover.jpg

    Video
    ID                          : 1
    ID in the original source m : 4113 (0x1011)
    Format                      : HEVC
    Format/Info                 : High Efficiency Video Coding
    Format profile              : Main 10@L5.1@High
    HDR format                  : SMPTE ST 2086, HDR10 compatible
    Codec ID                    : V_MPEGH/ISO/HEVC
    Duration                    : 1 h 52 min
    Bit rate                    : 45.0 Mb/s
    Width                       : 3 840 pixels
    Height                      : 2 160 pixels
    Display aspect ratio        : 16:9
    Frame rate mode             : Constant
    Frame rate                  : 23.976 (24000/1001) FPS
    Color space                 : YUV
    Chroma subsampling          : 4:2:0 (Type 2)
    Bit depth                   : 10 bits
    Bits/(Pixel*Frame)          : 0.226
    Stream size                 : 35.3 GiB (91%)
    Default                     : Yes
    Forced                      : No
    Color range                 : Limited
    Color primaries             : BT.2020
    Transfer characteristics    : PQ
    Matrix coefficients         : BT.2020 non-constant
    Mastering display color pri : Display P3
    Mastering display luminance : min: 0.0001 cd/m2, max: 1000 cd/m2
    Maximum Content Light Level : 1000 cd/m2
    Maximum Frame-Average Light : 218 cd/m2
    Original source medium      : Blu-ray

    Audio #1
    ID                          : 2
    ID in the original source m : 4352 (0x1100)
    Format                      : MLP FBA 16-ch
    Format/Info                 : Meridian Lossless Packing FBA with 16-channel presentation
    Commercial name             : Dolby TrueHD with Dolby Atmos
    Codec ID                    : A_TRUEHD
    Duration                    : 1 h 52 min
    Bit rate mode               : Variable
    Bit rate                    : 3 110 kb/s
    Maximum bit rate            : 5 526 kb/s
    Channel(s)                  : 8 channels
    Channel layout              : L R C LFE Ls Rs Lb Rb
    Sampling rate               : 48.0 kHz
    Frame rate                  : 1 200.000 FPS (40 SPF)
    Compression mode            : Lossless
    Stream size                 : 2.44 GiB (6%)
    Language                    : English
    Default                     : No
    Forced                      : No
    Original source medium      : Blu-ray
    Number of dynamic objects   : 11
    Bed channel count           : 1 channel
    Bed channel configuration   : LFE

    Audio #2
    ID                          : 3
    ID in the original source m : 4352 (0x1100)
    Format                      : AC-3
    Format/Info                 : Audio Coding 3
    Commercial name             : Dolby Digital
    Codec ID                    : A_AC3
    Duration                    : 1 h 52 min
    Bit rate mode               : Constant
    Bit rate                    : 448 kb/s
    Channel(s)                  : 6 channels
    Channel layout              : L R C LFE Ls Rs
    Sampling rate               : 48.0 kHz
    Frame rate                  : 31.250 FPS (1536 SPF)
    Compression mode            : Lossy
    Stream size                 : 360 MiB (1%)
    Language                    : English
    Service kind                : Complete Main
    Default                     : No
    Forced                      : No
    Original source medium      : Blu-ray

    Audio #3
    ID                          : 4
    ID in the original source m : 4353 (0x1101)
    Format                      : DTS
    Format/Info                 : Digital Theater Systems
    Codec ID                    : A_DTS
    Duration                    : 1 h 52 min
    Bit rate mode               : Constant
    Bit rate                    : 768 kb/s
    Channel(s)                  : 6 channels
    Channel layout              : C L R Ls Rs LFE
    Sampling rate               : 48.0 kHz
    Frame rate                  : 93.750 FPS (512 SPF)
    Bit depth                   : 24 bits
    Compression mode            : Lossy
    Stream size                 : 617 MiB (2%)
    Language                    : Spanish
    Default                     : Yes
    Forced                      : No
    Original source medium      : Blu-ray

    Text
    ID                          : 5
    ID in the original source m : 4769 (0x12A1)
    Format                      : PGS
    Muxing mode                 : zlib
    Codec ID                    : S_HDMV/PGS
    Codec ID/Info               : Picture based subtitle format used on BDs/HD-DVDs
    Duration                    : 1 h 51 min
    Bit rate                    : 43.3 kb/s
    Count of elements           : 3996
    Stream size                 : 34.6 MiB (0%)
    Language                    : Spanish
    Default                     : No
    Forced                      : No
    Original source medium      : Blu-ray

    Menu
    00:00:00.000                : Chapter 01
    00:07:24.318                : Chapter 02
    00:13:14.668                : Chapter 03
    00:20:01.241                : Chapter 04
    00:26:01.142                : Chapter 05
    00:30:50.223                : Chapter 06
    00:38:52.747                : Chapter 07
    00:45:25.681                : Chapter 08
    00:50:18.515                : Chapter 09
    00:53:55.065                : Chapter 10
    00:59:15.843                : Chapter 11
    01:03:10.328                : Chapter 12
    01:08:05.206                : Chapter 13
    01:14:23.750                : Chapter 14
    01:20:19.022                : Chapter 15
    01:27:47.512                : Chapter 16
    01:30:43.771                : Chapter 17
    01:39:14.198                : Chapter 18
    01:40:49.793                : Chapter 19
    01:48:34.466                : Chapter 20

  • Peso: 38.8 GiB

Sinopsis

Les presentamos al encantador y desempleado Scott Pilgrim (Michael Cera), bajista de un grupo “garage” de lo más corriente, los Sex Bob-omb. Este joven de 22 años acaba de conocer a la chica de sus sueños… la de verdad. ¿Cuál es el problema a la hora de conquistar a Ramona Flowers (Mary Elizabeth Winstead)? Los siete ex de la chica están decididos a matar a Scott.Scott Pilgrim nunca ha tenido problemas para echarse novia. Las dificultades aparecen cuando quiere cortar. Mientras intenta deshacerse de la última conquista, Ramona irrumpe en su vida, pero no tarda en descubrir que la mujer deseada arrastra un bagaje nada tranquilizador: sus ex controlan su vida amorosa y están dispuestos a hacer lo que sea para eliminar la competencia.

Ficha técnica

Video trailer de la película

Enlaces de descarga

Rip de Bluray

Descargar Scott Pilgrim vs. the World (2010) REMUX 4K HDR Latino – CMHDD


Aportes de DPeliculasHDmega la pass es:dpeliculashdmega.org Aportes de CinemaniaHD la pass es:cinemaniahdd.com
Guardado en : Acción , Comedia , Fantasía , Música , Romance

Películas relacionadas

  • DC Liga De Supermascotas (2022) HD 1080p Latino

    DC Liga De Supermascotas (2022) HD 1080p Latino

    2022
    DC Liga De Supermascotas (2022) HD 1080p Latino

    1h 45m 2022

    Descargar DC Liga De Supermascotas (2022) HD 1080p Latino. Krypto el Superperro y Superman son amigos...

    Director: Sam Levine

    Género: Acción

    Actores: Yvette Nicole Brown

  • Rick and Morty (2022) Temporada 6 WEB-DL 1080p Latino

    Rick and Morty (2022) Temporada 6 WEB-DL 1080p Latino

    2013
    Rick and Morty (2022) Temporada 6 WEB-DL 1080p Latino

    0h 22m 2013

    Comedia animada que narra las aventuras de un científico loco Rick Sánchez, que regresa después de...

    Director: Justin Roiland

    Género: Action & Adventure

    Actores: Spencer Grammer

  • Tremors (1990) REMUX 4K HDR Latino – CMHDD

    Tremors (1990) REMUX 4K HDR Latino – CMHDD

    1990
    Tremors (1990) REMUX 4K HDR Latino – CMHDD

    1h 35m 1990

    En Perfección, un pequeño pueblo al borde del desierto de Nevada, algo parece suceder debajo de la...

    Director: Susan Bierbaum

    Género: Acción

    Actores: Victor Wong

descargar Scott Pilgrim vs. the World (2010) REMUX 4K HDR Latino – CMHDD 4K HDR 1080p gratis, Scott Pilgrim vs. the World (2010) REMUX 4K HDR Latino – CMHDD 4K HDR mega 1 link, Scott Pilgrim vs. the World (2010) REMUX 4K HDR Latino – CMHDD 4K HDR pelicula completa, descargar Scott Pilgrim vs. the World (2010) REMUX 4K HDR Latino – CMHDD 4K HDR gratis en mega.

Scott Pilgrim vs. the World (2010) REMUX 4K HDR Latino – CMHDD pelicula full hd, Scott Pilgrim vs. the World (2010) REMUX 4K HDR Latino – CMHDD mega latino, Scott Pilgrim vs. the World (2010) REMUX 4K HDR Latino – CMHDD 4k latino, Scott Pilgrim vs. the World (2010) REMUX 4K HDR Latino – CMHDD pelicula completa, Scott Pilgrim vs. the World (2010) REMUX 4K HDR Latino – CMHDD descargar gratis, descargar Scott Pilgrim vs. the World (2010) REMUX 4K HDR Latino – CMHDD pelicula latino, Scott Pilgrim vs. the World (2010) REMUX 4K HDR Latino – CMHDD 1 link mega, Scott Pilgrim vs. the World (2010) REMUX 4K HDR Latino – CMHDD 1 link google drive, Scott Pilgrim vs. the World (2010) REMUX 4K HDR Latino – CMHDD hd 1080p latino.