×

¿Problemas para descargar con Mozilla, EDGE? Deshabilita la opción "Abrir vinculos en una pestaña nueva" tal como lo muestra ésta imagen.

Scott Pilgrim vs. the World (2010) REMUX 1080p Latino – CMHDD

318 vistas

Información de Scott Pilgrim vs. the World (2010) REMUX 1080p Latino – CMHDD

Datos de la película

  • Calidad: Full 1080p
  • Audio: Español Latino DTS 5.1 BLURAY - Ingles DTS 5.1 BLURAY
  • Subtitulos: Español Latino PGS
  • Resolución: 1920x1080p
  • Formato: MKV
  • Codec: H.264
  • Encoder: Dracarys
  • Mediainfo: Clic para Mostrar Datos Ver
  • Format                      : Matroska
    Format version              : Version 4
    File size                   : 23.5 GiB
    Duration                    : 1 h 52 min
    Overall bit rate mode       : Variable
    Overall bit rate            : 29.9 Mb/s
    Movie name                  : Scott Pilgrim vs. the World (2010) REMUX 1080p Latino - CMHDD
    Encoded date                : UTC 2021-06-20 03:53:31
    Writing application         : mkvmerge v56.1.0 ('My Friend') 64-bit
    Writing library             : libebml v1.4.2 + libmatroska v1.6.4
    Cover                       : Yes
    Attachments                 : cover.jpg / cover.jpg

    Video
    ID                          : 1
    ID in the original source m : 4113 (0x1011)
    Format                      : AVC
    Format/Info                 : Advanced Video Codec
    Format profile              : High@L4.1
    Format settings             : CABAC / 4 Ref Frames
    Format settings, CABAC      : Yes
    Format settings, Reference  : 4 frames
    Codec ID                    : V_MPEG4/ISO/AVC
    Duration                    : 1 h 52 min
    Bit rate mode               : Variable
    Bit rate                    : 25.2 Mb/s
    Maximum bit rate            : 34.0 Mb/s
    Width                       : 1 920 pixels
    Height                      : 1 080 pixels
    Display aspect ratio        : 16:9
    Frame rate mode             : Constant
    Frame rate                  : 23.976 (24000/1001) FPS
    Color space                 : YUV
    Chroma subsampling          : 4:2:0
    Bit depth                   : 8 bits
    Scan type                   : Progressive
    Bits/(Pixel*Frame)          : 0.507
    Stream size                 : 19.8 GiB (84%)
    Default                     : Yes
    Forced                      : No
    Color range                 : Limited
    Color primaries             : BT.709
    Transfer characteristics    : BT.709
    Matrix coefficients         : BT.709
    Original source medium      : Blu-ray

    Audio #1
    ID                          : 2
    ID in the original source m : 4352 (0x1100)
    Format                      : DTS XLL
    Format/Info                 : Digital Theater Systems
    Commercial name             : DTS-HD Master Audio
    Codec ID                    : A_DTS
    Duration                    : 1 h 52 min
    Bit rate mode               : Variable
    Bit rate                    : 3 946 kb/s
    Channel(s)                  : 6 channels
    Channel layout              : C L R Ls Rs LFE
    Sampling rate               : 48.0 kHz
    Frame rate                  : 93.750 FPS (512 SPF)
    Bit depth                   : 24 bits
    Compression mode            : Lossless
    Stream size                 : 3.10 GiB (13%)
    Language                    : English
    Default                     : No
    Forced                      : No
    Original source medium      : Blu-ray

    Audio #2
    ID                          : 3
    ID in the original source m : 4353 (0x1101)
    Format                      : DTS
    Format/Info                 : Digital Theater Systems
    Codec ID                    : A_DTS
    Duration                    : 1 h 52 min
    Bit rate mode               : Constant
    Bit rate                    : 768 kb/s
    Channel(s)                  : 6 channels
    Channel layout              : C L R Ls Rs LFE
    Sampling rate               : 48.0 kHz
    Frame rate                  : 93.750 FPS (512 SPF)
    Bit depth                   : 24 bits
    Compression mode            : Lossy
    Stream size                 : 617 MiB (3%)
    Language                    : Spanish
    Default                     : Yes
    Forced                      : No
    Original source medium      : Blu-ray

    Text #1
    ID                          : 4
    ID in the original source m : 4609 (0x1201)
    Format                      : PGS
    Muxing mode                 : zlib
    Codec ID                    : S_HDMV/PGS
    Codec ID/Info               : Picture based subtitle format used on BDs/HD-DVDs
    Duration                    : 1 h 51 min
    Bit rate                    : 43.3 kb/s
    Count of elements           : 4004
    Stream size                 : 34.5 MiB (0%)
    Language                    : Spanish
    Default                     : No
    Forced                      : No
    Original source medium      : Blu-ray

    Text #2
    ID                          : 5
    ID in the original source m : 4612 (0x1204)
    Format                      : PGS
    Muxing mode                 : zlib
    Codec ID                    : S_HDMV/PGS
    Codec ID/Info               : Picture based subtitle format used on BDs/HD-DVDs
    Duration                    : 1 h 51 min
    Bit rate                    : 1 597 b/s
    Count of elements           : 137
    Stream size                 : 1.27 MiB (0%)
    Language                    : Spanish
    Default                     : Yes
    Forced                      : No
    Original source medium      : Blu-ray

    Menu
    00:00:00.000                : Chapter 01
    00:07:24.318                : Chapter 02
    00:13:14.668                : Chapter 03
    00:20:01.241                : Chapter 04
    00:26:01.142                : Chapter 05
    00:30:50.223                : Chapter 06
    00:38:52.747                : Chapter 07
    00:45:25.681                : Chapter 08
    00:50:18.515                : Chapter 09
    00:53:55.065                : Chapter 10
    00:59:15.843                : Chapter 11
    01:03:10.328                : Chapter 12
    01:08:05.206                : Chapter 13
    01:14:23.750                : Chapter 14
    01:20:19.022                : Chapter 15
    01:27:47.512                : Chapter 16
    01:30:43.771                : Chapter 17
    01:39:14.198                : Chapter 18
    01:40:49.793                : Chapter 19
    01:48:34.466                : Chapter 20

  • Peso: 23.5 GiB

Sinopsis

Les presentamos al encantador y desempleado Scott Pilgrim (Michael Cera), bajista de un grupo “garage” de lo más corriente, los Sex Bob-omb. Este joven de 22 años acaba de conocer a la chica de sus sueños… la de verdad. ¿Cuál es el problema a la hora de conquistar a Ramona Flowers (Mary Elizabeth Winstead)? Los siete ex de la chica están decididos a matar a Scott.Scott Pilgrim nunca ha tenido problemas para echarse novia. Las dificultades aparecen cuando quiere cortar. Mientras intenta deshacerse de la última conquista, Ramona irrumpe en su vida, pero no tarda en descubrir que la mujer deseada arrastra un bagaje nada tranquilizador: sus ex controlan su vida amorosa y están dispuestos a hacer lo que sea para eliminar la competencia.

Ficha técnica

Video trailer de la película

Enlaces de descarga

Rip de Bluray

Descargar Scott Pilgrim vs. the World (2010) REMUX 1080p Latino – CMHDD


Aportes de DPeliculasHDmega la pass es:dpeliculashdmega.org Aportes de CinemaniaHD la pass es:cinemaniahdd.com
Guardado en : Acción , Comedia , Fantasía , Música , Romance

Películas relacionadas

descargar Scott Pilgrim vs. the World (2010) REMUX 1080p Latino – CMHDD Full 1080p 1080p gratis, Scott Pilgrim vs. the World (2010) REMUX 1080p Latino – CMHDD Full 1080p mega 1 link, Scott Pilgrim vs. the World (2010) REMUX 1080p Latino – CMHDD Full 1080p pelicula completa, descargar Scott Pilgrim vs. the World (2010) REMUX 1080p Latino – CMHDD Full 1080p gratis en mega.

Scott Pilgrim vs. the World (2010) REMUX 1080p Latino – CMHDD pelicula full hd, Scott Pilgrim vs. the World (2010) REMUX 1080p Latino – CMHDD mega latino, Scott Pilgrim vs. the World (2010) REMUX 1080p Latino – CMHDD 4k latino, Scott Pilgrim vs. the World (2010) REMUX 1080p Latino – CMHDD pelicula completa, Scott Pilgrim vs. the World (2010) REMUX 1080p Latino – CMHDD descargar gratis, descargar Scott Pilgrim vs. the World (2010) REMUX 1080p Latino – CMHDD pelicula latino, Scott Pilgrim vs. the World (2010) REMUX 1080p Latino – CMHDD 1 link mega, Scott Pilgrim vs. the World (2010) REMUX 1080p Latino – CMHDD 1 link google drive, Scott Pilgrim vs. the World (2010) REMUX 1080p Latino – CMHDD hd 1080p latino.
Comentarios 0