×

¿Problemas para descargar con Mozilla, EDGE? Deshabilita la opción "Abrir vinculos en una pestaña nueva" tal como lo muestra ésta imagen.

Scott Pilgrim vs. the World (2010) Full HD 1080p Latino – CMHDD

225 vistas

Información de Scott Pilgrim vs. the World (2010) Full HD 1080p Latino – CMHDD

Datos de la película

  • Calidad: Full 1080p
  • Audio: Español Latino DTS 5.1 BLURAY - Ingles DTS 5.1 BLURAY
  • Subtitulos: Español Latino PGS
  • Resolución: 1920x1080p
  • Formato: MKV
  • Codec: H.264
  • Encoder: Dracarys
  • Mediainfo: Clic para Mostrar Datos Ver
  • Format                      : Matroska
    Format version              : Version 4
    File size                   : 9.04 GiB
    Duration                    : 1 h 52 min
    Overall bit rate mode       : Variable
    Overall bit rate            : 11.5 Mb/s
    Movie name                  : Scott Pilgrim vs. the World (2010) Full HD 1080p Latino - CMHDD
    Encoded date                : UTC 2021-06-21 00:17:52
    Writing application         : mkvmerge v56.1.0 ('My Friend') 64-bit
    Writing library             : libebml v1.4.2 + libmatroska v1.6.4

    Video
    ID                          : 1
    Format                      : AVC
    Format/Info                 : Advanced Video Codec
    Format profile              : High@L4.1
    Format settings             : CABAC / 4 Ref Frames
    Format settings, CABAC      : Yes
    Format settings, Reference  : 4 frames
    Codec ID                    : V_MPEG4/ISO/AVC
    Duration                    : 1 h 52 min
    Bit rate                    : 6 784 kb/s
    Width                       : 1 920 pixels
    Height                      : 1 080 pixels
    Display aspect ratio        : 16:9
    Frame rate mode             : Constant
    Frame rate                  : 23.976 (24000/1001) FPS
    Color space                 : YUV
    Chroma subsampling          : 4:2:0
    Bit depth                   : 8 bits
    Scan type                   : Progressive
    Bits/(Pixel*Frame)          : 0.136
    Stream size                 : 5.33 GiB (59%)
    Writing library             : x264 core 157 r2935 545de2f
    Encoding settings           : cabac=1 / ref=4 / deblock=1:0:0 / analyse=0x3:0x133 / me=tesa / subme=11 / psy=1 / psy_rd=1.00:0.00 / mixed_ref=1 / me_range=24 / chroma_me=1 / trellis=2 / 8x8dct=1 / cqm=0 / deadzone=21,11 / fast_pskip=0 / chroma_qp_offset=-2 / threads=24 / lookahead_threads=6 / sliced_threads=0 / nr=0 / decimate=1 / interlaced=0 / bluray_compat=0 / constrained_intra=0 / bframes=16 / b_pyramid=2 / b_adapt=2 / b_bias=0 / direct=3 / weightb=1 / open_gop=0 / weightp=2 / keyint=240 / keyint_min=24 / scenecut=40 / intra_refresh=0 / rc_lookahead=60 / rc=crf / mbtree=1 / crf=20.0 / qcomp=0.60 / qpmin=0 / qpmax=69 / qpstep=4 / vbv_maxrate=62500 / vbv_bufsize=78125 / crf_max=0.0 / nal_hrd=none / filler=0 / ip_ratio=1.40 / aq=1:1.00
    Default                     : Yes
    Forced                      : No
    Color range                 : Limited
    Color primaries             : BT.709
    Transfer characteristics    : BT.709
    Matrix coefficients         : BT.709

    Audio #1
    ID                          : 2
    Format                      : DTS
    Format/Info                 : Digital Theater Systems
    Codec ID                    : A_DTS
    Duration                    : 1 h 52 min
    Bit rate mode               : Constant
    Bit rate                    : 768 kb/s
    Channel(s)                  : 6 channels
    Channel layout              : C L R Ls Rs LFE
    Sampling rate               : 48.0 kHz
    Frame rate                  : 93.750 FPS (512 SPF)
    Bit depth                   : 24 bits
    Compression mode            : Lossy
    Stream size                 : 617 MiB (7%)
    Language                    : Spanish
    Default                     : Yes
    Forced                      : No

    Audio #2
    ID                          : 3
    Format                      : DTS XLL
    Format/Info                 : Digital Theater Systems
    Commercial name             : DTS-HD Master Audio
    Codec ID                    : A_DTS
    Duration                    : 1 h 52 min
    Bit rate mode               : Variable
    Bit rate                    : 3 946 kb/s
    Channel(s)                  : 6 channels
    Channel layout              : C L R Ls Rs LFE
    Sampling rate               : 48.0 kHz
    Frame rate                  : 93.750 FPS (512 SPF)
    Bit depth                   : 24 bits
    Compression mode            : Lossless
    Stream size                 : 3.10 GiB (34%)
    Language                    : English
    Default                     : No
    Forced                      : No

    Text #1
    ID                          : 4
    Format                      : PGS
    Muxing mode                 : zlib
    Codec ID                    : S_HDMV/PGS
    Codec ID/Info               : Picture based subtitle format used on BDs/HD-DVDs
    Duration                    : 1 h 51 min
    Bit rate                    : 43.3 kb/s
    Count of elements           : 4004
    Stream size                 : 34.5 MiB (0%)
    Language                    : Spanish
    Default                     : No
    Forced                      : No

    Text #2
    ID                          : 5
    Format                      : PGS
    Muxing mode                 : zlib
    Codec ID                    : S_HDMV/PGS
    Codec ID/Info               : Picture based subtitle format used on BDs/HD-DVDs
    Duration                    : 1 h 51 min
    Bit rate                    : 1 597 b/s
    Count of elements           : 137
    Stream size                 : 1.27 MiB (0%)
    Language                    : Spanish
    Default                     : Yes
    Forced                      : No

    Menu
    00:00:00.000                : :Chapter 1
    00:07:24.402                : :Chapter 2
    00:13:14.669                : :Chapter 3
    00:20:01.242                : :Chapter 4
    00:26:01.143                : :Chapter 5
    00:30:50.349                : :Chapter 6
    00:38:52.831                : :Chapter 7
    00:45:25.806                : :Chapter 8
    00:50:18.516                : :Chapter 9
    00:53:55.149                : :Chapter 10
    00:59:15.927                : :Chapter 11
    01:03:10.453                : :Chapter 12
    01:08:05.290                : :Chapter 13
    01:14:23.751                : :Chapter 14
    01:20:19.023                : :Chapter 15
    01:27:47.554                : :Chapter 16
    01:30:43.772                : :Chapter 17
    01:39:14.323                : :Chapter 18
    01:40:49.794                : :Chapter 19
    01:48:34.550                : :Chapter 20

  • Peso: 9.04 GiB

Sinopsis

Les presentamos al encantador y desempleado Scott Pilgrim (Michael Cera), bajista de un grupo “garage” de lo más corriente, los Sex Bob-omb. Este joven de 22 años acaba de conocer a la chica de sus sueños… la de verdad. ¿Cuál es el problema a la hora de conquistar a Ramona Flowers (Mary Elizabeth Winstead)? Los siete ex de la chica están decididos a matar a Scott.Scott Pilgrim nunca ha tenido problemas para echarse novia. Las dificultades aparecen cuando quiere cortar. Mientras intenta deshacerse de la última conquista, Ramona irrumpe en su vida, pero no tarda en descubrir que la mujer deseada arrastra un bagaje nada tranquilizador: sus ex controlan su vida amorosa y están dispuestos a hacer lo que sea para eliminar la competencia.

Ficha técnica

Video trailer de la película

Enlaces de descarga

Rip de Bluray

Descargar Scott Pilgrim vs. the World (2010) Full HD 1080p Latino – CMHDD




Aportes de DPeliculasHDmega la pass es:dpeliculashdmega.org Aportes de CinemaniaHD la pass es:cinemaniahdd.com
Guardado en : Acción , Comedia , Fantasía , Música , Romance

Películas relacionadas

descargar Scott Pilgrim vs. the World (2010) Full HD 1080p Latino – CMHDD Full 1080p 1080p gratis, Scott Pilgrim vs. the World (2010) Full HD 1080p Latino – CMHDD Full 1080p mega 1 link, Scott Pilgrim vs. the World (2010) Full HD 1080p Latino – CMHDD Full 1080p pelicula completa, descargar Scott Pilgrim vs. the World (2010) Full HD 1080p Latino – CMHDD Full 1080p gratis en mega.

Scott Pilgrim vs. the World (2010) Full HD 1080p Latino – CMHDD pelicula full hd, Scott Pilgrim vs. the World (2010) Full HD 1080p Latino – CMHDD mega latino, Scott Pilgrim vs. the World (2010) Full HD 1080p Latino – CMHDD 4k latino, Scott Pilgrim vs. the World (2010) Full HD 1080p Latino – CMHDD pelicula completa, Scott Pilgrim vs. the World (2010) Full HD 1080p Latino – CMHDD descargar gratis, descargar Scott Pilgrim vs. the World (2010) Full HD 1080p Latino – CMHDD pelicula latino, Scott Pilgrim vs. the World (2010) Full HD 1080p Latino – CMHDD 1 link mega, Scott Pilgrim vs. the World (2010) Full HD 1080p Latino – CMHDD 1 link google drive, Scott Pilgrim vs. the World (2010) Full HD 1080p Latino – CMHDD hd 1080p latino.
Comentarios 0