×

¿Problemas para descargar con Mozilla, EDGE? Deshabilita la opción "Abrir vinculos en una pestaña nueva" tal como lo muestra ésta imagen.

Scott Pilgrim Takes Off (2023) Temporada 1 NF WEB-DL 1080p Latino

93 vistas

Información de Scott Pilgrim Takes Off (2023) Temporada 1 NF WEB-DL 1080p Latino

Datos de la película

  • Calidad: WEBDL
  • Audio: Español Latino E-AC3 5.1 Netflix - Ingles E-AC3 5.1 Netflix
  • Subtitulos: Español Latino SRT- FORZADOS SRT
  • Resolución: 1920x1080p
  • Formato: MKV
  • Codec: H.264
  • Encoder: Melkor
  • Mediainfo: Clic para Mostrar Datos Ver
  • Scott Pilgrim Takes Off S01E01 (2023) NF WebDL 1080p Latino.mkv
    Format                      : Matroska
    Format version              : Version 4
    File size                   : 1.36 GiB
    Duration                    : 28 min 31 s
    Overall bit rate mode       : Variable
    Overall bit rate            : 6 826 kb/s
    Movie name                  : Scott Pilgrim Takes Off S01E01 - Scott Pilgrims Precious Little Life  CinemaniaHDD.Net
    Encoded date                : UTC 2023-11-19 09:51:19
    Writing application         : mkvmerge v59.0.0 ('Shining Star') 64-bit
    Writing library             : libebml v1.4.2 + libmatroska v1.6.4
    Attachments                 : CINEMANIAHD.png
    Site                        : CinemaniaHDD.Net
    Uploader                    : Melkor

    Video
    ID                          : 1
    Format                      : AVC
    Format/Info                 : Advanced Video Codec
    Format profile              : High@L4
    Format settings             : CABAC / 4 Ref Frames
    Format settings, CABAC      : Yes
    Format settings, Reference  : 4 frames
    Codec ID                    : V_MPEG4/ISO/AVC
    Duration                    : 28 min 31 s
    Bit rate mode               : Variable
    Bit rate                    : 5 544 kb/s
    Maximum bit rate            : 20.0 Mb/s
    Width                       : 1 920 pixels
    Height                      : 1 080 pixels
    Display aspect ratio        : 16:9
    Frame rate mode             : Constant
    Frame rate                  : 23.976 (24000/1001) FPS
    Color space                 : YUV
    Chroma subsampling          : 4:2:0
    Bit depth                   : 8 bits
    Scan type                   : Progressive
    Bits/(Pixel*Frame)          : 0.112
    Stream size                 : 1.10 GiB (81%)
    Title                       : WEB HD1080p [CinemaniaHDD]
    Writing library             : x264 core 148 r2727 7d026e8
    Encoding settings           : cabac=1 / ref=4 / deblock=1:0:0 / analyse=0x3:0x111 / me=umh / subme=10 / psy=1 / psy_rd=1.00:0.00 / mixed_ref=1 / me_range=120 / chroma_me=1 / trellis=2 / 8x8dct=1 / cqm=0 / deadzone=21,11 / fast_pskip=1 / chroma_qp_offset=-2 / threads=6 / lookahead_threads=1 / sliced_threads=0 / nr=0 / decimate=1 / interlaced=0 / bluray_compat=0 / stitchable=1 / constrained_intra=0 / bframes=16 / b_pyramid=2 / b_adapt=2 / b_bias=0 / direct=3 / weightb=1 / open_gop=0 / weightp=2 / keyint=240 / keyint_min=121 / scenecut=0 / intra_refresh=0 / rc_lookahead=240 / rc=crf / mbtree=1 / crf=22.0 / qcomp=0.50 / qpmin=6 / qpmax=51 / qpstep=4 / vbv_maxrate=20000 / vbv_bufsize=25000 / crf_max=0.0 / nal_hrd=vbr / filler=0 / ip_ratio=1.40 / aq=1:0.80
    Default                     : Yes
    Forced                      : No

    Audio #1
    ID                          : 2
    Format                      : E-AC-3
    Format/Info                 : Enhanced AC-3
    Commercial name             : Dolby Digital Plus
    Codec ID                    : A_EAC3
    Duration                    : 28 min 31 s
    Bit rate mode               : Constant
    Bit rate                    : 640 kb/s
    Channel(s)                  : 6 channels
    Channel layout              : L R C LFE Ls Rs
    Sampling rate               : 48.0 kHz
    Frame rate                  : 31.250 FPS (1536 SPF)
    Compression mode            : Lossy
    Stream size                 : 131 MiB (9%)
    Title                       : Español Latino [CinemaniaHDD]
    Language                    : Spanish
    Service kind                : Complete Main
    Default                     : Yes
    Forced                      : No

    Audio #2
    ID                          : 3
    Format                      : E-AC-3
    Format/Info                 : Enhanced AC-3
    Commercial name             : Dolby Digital Plus
    Codec ID                    : A_EAC3
    Duration                    : 28 min 31 s
    Bit rate mode               : Constant
    Bit rate                    : 640 kb/s
    Channel(s)                  : 6 channels
    Channel layout              : L R C LFE Ls Rs
    Sampling rate               : 48.0 kHz
    Frame rate                  : 31.250 FPS (1536 SPF)
    Compression mode            : Lossy
    Stream size                 : 131 MiB (9%)
    Title                       : Ingles [CinemaniaHDD]
    Language                    : English
    Service kind                : Complete Main
    Default                     : No
    Forced                      : No

    Text #1
    ID                          : 4
    Format                      : UTF-8
    Codec ID                    : S_TEXT/UTF8
    Codec ID/Info               : UTF-8 Plain Text
    Duration                    : 19 min 16 s
    Bit rate                    : 5 b/s
    Count of elements           : 24
    Stream size                 : 832 Bytes (0%)
    Title                       : Forzados-SRT [CinemaniaHDD]
    Language                    : Spanish
    Default                     : Yes
    Forced                      : Yes

    Text #2
    ID                          : 5
    Format                      : UTF-8
    Codec ID                    : S_TEXT/UTF8
    Codec ID/Info               : UTF-8 Plain Text
    Duration                    : 26 min 23 s
    Bit rate                    : 56 b/s
    Count of elements           : 351
    Stream size                 : 10.9 KiB (0%)
    Title                       : Español-SRT [CinemaniaHDD]
    Language                    : Spanish
    Default                     : No
    Forced                      : No

    Text #3
    ID                          : 6
    Format                      : UTF-8
    Codec ID                    : S_TEXT/UTF8
    Codec ID/Info               : UTF-8 Plain Text
    Duration                    : 26 min 27 s
    Bit rate                    : 81 b/s
    Count of elements           : 541
    Stream size                 : 15.8 KiB (0%)
    Title                       : Ingles-SRT [CinemaniaHDD]
    Language                    : English
    Default                     : No
    Forced                      : No

  • Peso: 1.6 GiB -- 11.4 GiB -- 8 Chapters

Sinopsis

Descargar Scott Pilgrim Takes Off (2023) Temporada 1 NF WEB-DL 1080p Latino. Scott Pilgrim conoce a la chica de sus sueños, Ramona Flowers. Pero, para ganar su amor, deberá vérselas con sus siete malvadas exparejas.

Ficha técnica

Video trailer de la película

Enlaces de descarga

Rip de Bluray

Descargar Scott Pilgrim Takes Off (2023) Temporada 1 NF WEB-DL 1080p Latino




Aportes de DPeliculasHDmega la pass es:dpeliculashdmega.org Aportes de CinemaniaHD la pass es:cinemaniahdd.com Aportes recientes:cinemaniahdd.net

Películas relacionadas

descargar Scott Pilgrim Takes Off (2023) Temporada 1 NF WEB-DL 1080p Latino WEBDL 1080p gratis, Scott Pilgrim Takes Off (2023) Temporada 1 NF WEB-DL 1080p Latino WEBDL mega 1 link, Scott Pilgrim Takes Off (2023) Temporada 1 NF WEB-DL 1080p Latino WEBDL pelicula completa, descargar Scott Pilgrim Takes Off (2023) Temporada 1 NF WEB-DL 1080p Latino WEBDL gratis en mega.

Scott Pilgrim Takes Off (2023) Temporada 1 NF WEB-DL 1080p Latino pelicula full hd, Scott Pilgrim Takes Off (2023) Temporada 1 NF WEB-DL 1080p Latino mega latino, Scott Pilgrim Takes Off (2023) Temporada 1 NF WEB-DL 1080p Latino 4k latino, Scott Pilgrim Takes Off (2023) Temporada 1 NF WEB-DL 1080p Latino pelicula completa, Scott Pilgrim Takes Off (2023) Temporada 1 NF WEB-DL 1080p Latino descargar gratis, descargar Scott Pilgrim Takes Off (2023) Temporada 1 NF WEB-DL 1080p Latino pelicula latino, Scott Pilgrim Takes Off (2023) Temporada 1 NF WEB-DL 1080p Latino 1 link mega, Scott Pilgrim Takes Off (2023) Temporada 1 NF WEB-DL 1080p Latino 1 link google drive, Scott Pilgrim Takes Off (2023) Temporada 1 NF WEB-DL 1080p Latino hd 1080p latino.
Comentarios 0