×

¿Problemas para descargar con Mozilla, EDGE? Deshabilita la opción "Abrir vinculos en una pestaña nueva" tal como lo muestra ésta imagen.

Mortal Kombat Legends: La venganza de Scorpion (2020) REMUX 1080p Latino

797 vistas

Información de Mortal Kombat Legends: La venganza de Scorpion (2020) REMUX 1080p Latino

Datos de la película

  • Calidad: Full 1080p
  • Audio: Español Latino AC3 5.1 iTUNES - Ingles DTS 5.1 BLURAY
  • Subtitulos: Español Latino PGS - Ingles PGS
  • Resolución: 1920x1080p
  • Formato: MKV
  • Codec: H.264
  • Encoder: Melkor
  • Mediainfo: Clic para Mostrar Datos Ver
  • MK Legends La venganza de Scorpion (2020) REMUX 1080 Latino.mkv
    Format                      : Matroska
    Format version              : Version 4
    File size                   : 9.91 GiB
    Duration                    : 1 h 19 min
    Overall bit rate mode       : Variable
    Overall bit rate            : 17.7 Mb/s
    Movie name                  : Mortal Kombat Legends Scorpion’s Revenge CinemaniaHDD.Net
    Encoded date                : UTC 2020-04-19 18:25:06
    Writing application         : mkvmerge v42.0.0 ('Overtime') 64-bit
    Writing library             : libebml v1.3.10 + libmatroska v1.5.2
    Attachments                 : CINEMANIAHD.png

    Video
    ID                          : 1
    Format                      : AVC
    Format/Info                 : Advanced Video Codec
    Format profile              : High@L4.1
    Format settings             : CABAC / 4 Ref Frames
    Format settings, CABAC      : Yes
    Format settings, ReFrames   : 4 frames
    Codec ID                    : V_MPEG4/ISO/AVC
    Duration                    : 1 h 19 min
    Bit rate mode               : Variable
    Bit rate                    : 14.9 Mb/s
    Maximum bit rate            : 37.0 Mb/s
    Width                       : 1 920 pixels
    Height                      : 1 080 pixels
    Display aspect ratio        : 16:9
    Frame rate mode             : Constant
    Frame rate                  : 23.976 (24000/1001) FPS
    Color space                 : YUV
    Chroma subsampling          : 4:2:0
    Bit depth                   : 8 bits
    Scan type                   : Progressive
    Bits/(Pixel*Frame)          : 0.301
    Stream size                 : 8.35 GiB (84%)
    Title                       : REMUX 1080p [CinemaniaHDD]
    Default                     : Yes
    Forced                      : No

    Audio #1
    ID                          : 2
    Format                      : AC-3
    Format/Info                 : Audio Coding 3
    Commercial name             : Dolby Digital
    Codec ID                    : A_AC3
    Duration                    : 1 h 19 min
    Bit rate mode               : Constant
    Bit rate                    : 384 kb/s
    Channel(s)                  : 6 channels
    Channel layout              : L R C LFE Ls Rs
    Sampling rate               : 48.0 kHz
    Frame rate                  : 31.250 FPS (1536 SPF)
    Bit depth                   : 16 bits
    Compression mode            : Lossy
    Stream size                 : 220 MiB (2%)
    Title                       : Español Latino [CinemaniaHDD]
    Language                    : Spanish
    Service kind                : Complete Main
    Default                     : Yes
    Forced                      : Yes

    Audio #2
    ID                          : 3
    Format                      : DTS XLL
    Format/Info                 : Digital Theater Systems
    Commercial name             : DTS-HD Master Audio
    Codec ID                    : A_DTS
    Duration                    : 1 h 19 min
    Bit rate mode               : Variable
    Bit rate                    : 2 398 kb/s
    Channel(s)                  : 6 channels
    Channel layout              : C L R Ls Rs LFE
    Sampling rate               : 48.0 kHz
    Frame rate                  : 93.750 FPS (512 SPF)
    Bit depth                   : 16 bits
    Compression mode            : Lossless
    Stream size                 : 1.34 GiB (14%)
    Title                       : Ingles [CinemaniaHDD]
    Language                    : English
    Default                     : No
    Forced                      : No

    Text #1
    ID                          : 4
    Format                      : PGS
    Muxing mode                 : zlib
    Codec ID                    : S_HDMV/PGS
    Codec ID/Info               : Picture based subtitle format used on BDs/HD-DVDs
    Duration                    : 1 h 19 min
    Bit rate                    : 23.4 kb/s
    Count of elements           : 1714
    Stream size                 : 13.3 MiB (0%)
    Title                       : Español-PGS [CinemaniaHDD]
    Language                    : Spanish
    Default                     : No
    Forced                      : No

    Text #2
    ID                          : 5
    Format                      : PGS
    Muxing mode                 : zlib
    Codec ID                    : S_HDMV/PGS
    Codec ID/Info               : Picture based subtitle format used on BDs/HD-DVDs
    Duration                    : 1 h 17 min
    Bit rate                    : 28.6 kb/s
    Count of elements           : 2120
    Stream size                 : 15.8 MiB (0%)
    Title                       : Ingles-PGS [CinemaniaHDD]
    Language                    : English
    Default                     : No
    Forced                      : No

    Text #3
    ID                          : 6
    Format                      : UTF-8
    Codec ID                    : S_TEXT/UTF8
    Codec ID/Info               : UTF-8 Plain Text
    Duration                    : 18 min 22 s
    Bit rate                    : 1 b/s
    Count of elements           : 6
    Stream size                 : 222 Bytes (0%)
    Title                       : Forzados-SRT [CinemaniaHDD]
    Language                    : Spanish
    Default                     : Yes
    Forced                      : No

    Text #4
    ID                          : 7
    Format                      : UTF-8
    Codec ID                    : S_TEXT/UTF8
    Codec ID/Info               : UTF-8 Plain Text
    Duration                    : 1 h 17 min
    Bit rate                    : 39 b/s
    Count of elements           : 856
    Stream size                 : 22.2 KiB (0%)
    Title                       : Español-SRT [CinemaniaHDD]
    Language                    : Spanish
    Default                     : No
    Forced                      : No

    Menu
    00:00:00.000                : :Chapter 1
    00:09:22.062                : :Chapter 2
    00:19:53.693                : :Chapter 3
    00:28:12.191                : :Chapter 4
    00:35:54.402                : :Chapter 5
    00:45:51.082                : :Chapter 6
    00:55:18.774                : :Chapter 7
    01:04:28.448                : :Chapter 8
    01:13:56.724                : :Chapter 9
    01:17:22.555                : :Chapter 10

  • Peso: 9.91 GiB

Sinopsis

Descargar Mortal Kombat Legends: La venganza de Scorpion (2020) REMUX 1080p Latino. Basado en el popular videojuego creado por Ed Boon y John Tovias, Mortal Kombat Legends: Scorpion’s Revenge pone el foco en un torneo único que se celebra una vez por generación y en el que se enfrentan los campeones de distintos reinos. El ganador determinará el destino de la Tierra y de sus habitantes.

Ficha técnica

Video trailer de la película

Enlaces de descarga

Rip de Bluray

Descargar Mortal Kombat Legends: La venganza de Scorpion (2020) REMUX 1080p Latino




Aportes de DPeliculasHDmega la pass es:dpeliculashdmega.org Aportes de CinemaniaHD la pass es:cinemaniahdd.com
Guardado en : Acción , Animación , Aventura , Fantasía , Remux

Películas relacionadas

descargar Mortal Kombat Legends: La venganza de Scorpion (2020) REMUX 1080p Latino Full 1080p 1080p gratis, Mortal Kombat Legends: La venganza de Scorpion (2020) REMUX 1080p Latino Full 1080p mega 1 link, Mortal Kombat Legends: La venganza de Scorpion (2020) REMUX 1080p Latino Full 1080p pelicula completa, descargar Mortal Kombat Legends: La venganza de Scorpion (2020) REMUX 1080p Latino Full 1080p gratis en mega.

Mortal Kombat Legends: La venganza de Scorpion (2020) REMUX 1080p Latino pelicula full hd, Mortal Kombat Legends: La venganza de Scorpion (2020) REMUX 1080p Latino mega latino, Mortal Kombat Legends: La venganza de Scorpion (2020) REMUX 1080p Latino 4k latino, Mortal Kombat Legends: La venganza de Scorpion (2020) REMUX 1080p Latino pelicula completa, Mortal Kombat Legends: La venganza de Scorpion (2020) REMUX 1080p Latino descargar gratis, descargar Mortal Kombat Legends: La venganza de Scorpion (2020) REMUX 1080p Latino pelicula latino, Mortal Kombat Legends: La venganza de Scorpion (2020) REMUX 1080p Latino 1 link mega, Mortal Kombat Legends: La venganza de Scorpion (2020) REMUX 1080p Latino 1 link google drive, Mortal Kombat Legends: La venganza de Scorpion (2020) REMUX 1080p Latino hd 1080p latino.
Comentarios 0